Бруно Моретти и Клаудио Монтеверди - Караваджо (Мауро Бигонзетти, Пол Коннелли, Владимир Малахов, Полина Семионова) / Bruno Moretti and Claudio Monteverdi - Caravaggio (Mauro Bigonzetti, Paul Connelly) [2008, Ballet, BDRip]


 

[Цитировать]

Бруно Моретти и Клаудио Монтеверди - Караваджо
Bruno Moretti and Claudio Monteverdi
Год выпуска: 2008
Лейбл: ArtHaus Musik
Страна-производитель: Германия
Жанр: Ballet
Продолжительность: 01:32:30
Балет: Берлинский государственный балет
Оркестр: Берлинская государственная капелла
Дирижер: Пол Коннелли (Paul Connelly)
Режиссер/Хореограф: Мауро Бигонзетти (Mauro Bigonzetti)
Исполнители: Владимир Малахов, Полина Семионова, Михаэль Банцхаф, Элиза Каррилло Кабрера, Леонард Яковина, Михаил Канискин, Беатрис Ноп, Шоко Накамура, Дмитрий Семионов
Описание: Берлинский балет, возглавляемый Владимиром Малаховым, представляет балет «Караваджо», поставленный итальянским хореографом Мауро Бигонзетти. Рассказ о великом художнике, раскрывающий историю его жизни и оживляющий его картины. «Караваджо» скроен почти по эйфмановскому лекалу: страдающий художник и развратное общество. Спектакль делится на две части: в первой упоминаются какие-то детали реальной биографии живописца, вторая — фантазия на тему его «матфеевского» цикла. Сквозь римскую толпу, летящую в карнавальном танце, художника таскают два пьяных вакха —спаивают, непристойным движением выжимая ему в рот сок из виноградной кисти, и подталкивают к шальным па. Но передвижения художника отслеживает девушка, обозначенная как Свет (роль досталась Полине Семионовой), — нечто вроде ангела-хранителя, олицетворённого призвания. Свет с художником жесток: вплоть до заломленной за спину руки и перехваченного локтем горла. Хочет он того или не хочет, пусть даже заслоняется от неё руками и видеть её не желает, но девушка повлечёт его к художественным занятиям, заставив отшатнуться от пьяных бездельников...
Первоисточник: Blu-ray 1080i
Все спектакли Караваджо через поиск
Качество видео: BDRip
Формат/Контейнер: AVI
Видео кодек: XviD
Аудио кодек: AC3
Видео поток: MPEG-4 Visual, 1787 Кбит/сек, 704 x 400 (1.760), 29.970 fps, 0.21 bit/pixel
Аудио поток: AC-3, 448 Кбит/сек, 6 каналов, 48,0 КГц

MediaInfo

Общее
Полное имя : Moretti.Monteverdi-Caravaggio.2008.BDRip.avi
Формат : AVI
Формат/Информация : Audio Video Interleave
Размер файла : 1,45 Гбайт
Продолжительность : 1 ч. 32 м.
Общий поток : 2247 Кбит/сек
Программа кодирования : VirtualDubMod 1.5.10.3 | www.virtualdub-fr.org || (build 2550/release)
Библиотека кодирования : VirtualDubMod build 2550/release
Видео
Идентификатор : 0
Формат : MPEG-4 Visual
Профиль формата : Advanced Simple@L5
Параметр BVOP формата : 2
Параметр QPel формата : Нет
Параметр GMC формата : Без точки перехода
Параметр матрицы формата : Default (MPEG)
Идентификатор кодека : XVID
Идентификатор кодека/Подсказка : XviD
Продолжительность : 1 ч. 32 м.
Битрейт : 1787 Кбит/сек
Ширина : 704 пикселя
Высота : 400 пикселей
Соотношение сторон : 16:9
Частота кадров : 29,970 кадров/сек
Цветовое пространство : YUV
Субдискретизация насыщенности : 4:2:0
Битовая глубина : 8 бит
Тип развёртки : Прогрессивная
Метод сжатия : С потерями
Бит/(Пиксели*Кадры) : 0.212
Размер потока : 1,15 Гбайт (80%)
Библиотека кодирования : XviD 64
Аудио
Идентификатор : 1
Формат : AC-3
Формат/Информация : Audio Coding 3
Расширение режима : CM (complete main)
Идентификатор кодека : 2000
Продолжительность : 1 ч. 32 м.
Вид битрейта : Постоянный
Битрейт : 448 Кбит/сек
Каналы : 6 каналов
Расположение каналов : Front: L C R, Side: L R, LFE
Частота : 48,0 КГц
Битовая глубина : 16 бит
Метод сжатия : С потерями
Размер потока : 296 Мбайт (20%)
Выравнивание : Разделение по промежуткам
Продолжительность промежутка : 33 мс. (1,00 видеокадр)
Время предзагрузки промежутка : 500 мс.

Скриншоты




Показать сообщения:    

Текущее время: 05-Дек 01:24

Часовой пояс: UTC + 3


Вы не можете начинать темы
Вы не можете отвечать на сообщения
Вы не можете редактировать свои сообщения
Вы не можете удалять свои сообщения
Вы не можете голосовать в опросах
Вы не можете прикреплять файлы к сообщениям
Вы не можете скачивать файлы