Адольф Адан - Жизель (Шарль Жюд) / Adolphe Adam - Giselle - Charles Jude (Oxana Kucheruk, Igor Yebra, Yumi Aizawa) [2011, Балет, HDTVRip]


 

[Цитировать]

Жизель / Giselle
Год выпуска: 2011
Страна-производитель: Франция
Жанр: Балет
Продолжительность: 01:42:57
Язык: французский
Перевод: не требуется
Субтитры: нет
Режиссер/Хореограф: Шарль Жюд / Charles Jude
Композитир: Адольф Шарль Адан / Adolphe Charles Adam
Исполнители музыки: Orchestre National Bordeaux Aquitaine
Дирижер: Ermanno Florio
Исполнители:
Giselle - Оксана Кучерук / Oxana Kucheruk,
Albrecht - Igor Yebra
Hilarion - Alvaro Rodriguez Pinera
Wilfred - Marc Emmanuel Zanoli
La Mere - Lolita Lequellec
Bathilde – Marie-Lys Navarro
Le prince de Courlande - Ludovic Dussarps
Myrtha - Yumi Aizawa
Описание:
«Жизель» (полное название «Жизель, или Вилисы») — «фантастический балет» в двух актах (1841) французского композитора Адольфа Адана на либретто Анри де Сен-Жоржа, Теофиля Готье и Жана Коралли по легенде, пересказанной Генрихом Гейне.
Доп. информация: Запись с канала MEZZO
Качество видео: HDTVRip
Формат/Контейнер: AVI
Видео кодек: XviD
Аудио кодек: AC3
Видео поток: Xvid 656x368 29.97fps 1832kbps
Аудио поток: Dolby AC3 48000Hz stereo 192kbps
Сэмпл: http://multi-up.com/625939

Mediainfo

File size : 1.46 GiB
Duration : 1h 42mn
Overall bit rate : 2 036 Kbps
Writing application : VirtualDubMod 1.5.10.2 (build 2540/release)
Writing library : VirtualDubMod build 2540/release
Video
ID : 0
Format : MPEG-4 Visual
Format profile : Advanced Simple@L5
Format settings, BVOP : Yes
Format settings, QPel : No
Format settings, GMC : No warppoints
Format settings, Matrix : Default (MPEG)
Codec ID : XVID
Codec ID/Hint : XviD
Duration : 1h 42mn
Bit rate : 1 832 Kbps
Width : 656 pixels
Height : 368 pixels
Display aspect ratio : 16:9
Frame rate : 29.970 fps
Color space : YUV
Chroma subsampling : 4:2:0
Bit depth : 8 bits
Scan type : Progressive
Bits/(Pixel*Frame) : 0.253
Stream size : 1.32 GiB (90%)
Writing library : XviD 1.2.1 (UTC 2008-12-04)
Audio
ID : 1
Format : AC-3
Format/Info : Audio Coding 3
Mode extension : CM (complete main)
Codec ID : 2000
Duration : 1h 42mn
Bit rate mode : Constant
Bit rate : 192 Kbps
Channel(s) : 2 channels
Channel positions : Front: L R
Sampling rate : 48.0 KHz
Bit depth : 16 bits
Stream size : 141 MiB (9%)
Alignment : Aligned on interleaves
Interleave, duration : 33 ms (1.00 video frame)
Interleave, preload duration : 512 ms

Скриншот названия

Скриншоты




Показать сообщения:    

Текущее время: 03-Дек 12:40

Часовой пояс: UTC + 3


Вы не можете начинать темы
Вы не можете отвечать на сообщения
Вы не можете редактировать свои сообщения
Вы не можете удалять свои сообщения
Вы не можете голосовать в опросах
Вы не можете прикреплять файлы к сообщениям
Вы не можете скачивать файлы