Мастера русского балета: Петр Чайковский - Лебединое озеро (Лев Иванов, Мариус Петип); Борис Асафьев - Бахчисарайский фонтан (Ростислав Захаров), Пламя Парижа (Василия Вайнонена) [1953, Фильм-концерт, балет, DVDRip]


 

[Цитировать]

Мастера русского балета
Год выпуска: 1953
Студия: Ленфильм
Страна-производитель: СССР
Жанр: Фильм-концерт, балет
Продолжительность: 01:18:23
Перевод: Не требуется
Субтитры: нет
Режиссёр-постановщик: Герберт Раппапорт
Исполнители: солисты и артисты балета Государственного ордена Ленина академического Большого театра СССР; солисты и артисты балета, хор и оркестр Государственного ордена Ленина академического театра оперы и балета им. С. М. Кирова. Дирижёры Евгений Дубовской, Павел Фельдт.
Программа:: 1. Сцены из балета Петра Чайковского «Лебединое озеро», постановка Льва Иванова, Мариуса Петипа, новая редакция Константина Сергеева. Исполнители: Галина Уланова, Наталья Дудинская, Константин Сергеев, Владимир Баканов (30'30").
2. Сцены из балета Бориса Асафьева «Бахчисарайский фонтан», либретто Николая Волкова (по поэме Александра Пушкина), постановка Ростислава Захарова. Исполнители: Галина Уланова, Майя Плисецкая, Пётр Гусев, Юрий Жданов, Игорь Бельский (25'16").
3. Сцены из балета Бориса Асафьева «Пламя Парижа». Либретто Николая Волкова, Владимира Дмитриева, постановка Василия Вайнонена. Исполнители: Вахтанг Чабукиани, Муза Готлиб, Виктор Цаплин, Ядвига Сангович, Виктор Смольцов (21'17").
Качество видео: DVDRip Исходник
Контейнер: AVI
Семпл: http://multi-up.com/623573
Доп. информация: Автор рипа domovik.
Видео поток: XviD build 50, 704x528 (1.33:1), 25 fps, 2282 kbps avg
Аудио поток: AC3 Dolby Digital, 48 kHz, 2/0 (L,R) ch, 192 kbps avg

MediaInfo

General
Complete name : D:\Mastera.Russkogo.Baleta.1953.XviD.DVDRip.domovik.avi
Format : AVI
Format/Info : Audio Video Interleave
File size : 1.36 GiB
Duration : 1h 18mn
Overall bit rate : 2 485 Kbps
Writing application : VirtualDubMod 1.5.10.2 (build 2540/release)
Writing library : VirtualDubMod build 2540/release
Video
ID : 0
Format : MPEG-4 Visual
Format profile : AdvancedSimple@L5
Format settings, BVOP : Yes
Format settings, QPel : No
Format settings, GMC : No warppoints
Format settings, Matrix : Default (MPEG)
Codec ID : XVID
Codec ID/Hint : XviD
Duration : 1h 18mn
Bit rate : 2 283 Kbps
Width : 704 pixels
Height : 528 pixels
Display aspect ratio : 4/3
Frame rate : 25.000 fps
Resolution : 24 bits
Colorimetry : 4:2:0
Scan type : Progressive
Bits/(Pixel*Frame) : 0.246
Stream size : 1.25 GiB (92%)
Writing library : XviD 1.2.1 (UTC 2008-12-04)
Audio
ID : 1
Format : AC-3
Format/Info : Audio Coding 3
Codec ID : 2000
Duration : 1h 18mn
Bit rate mode : Constant
Bit rate : 192 Kbps
Channel(s) : 2 channels
Channel positions : L R
Sampling rate : 48.0 KHz
Stream size : 108 MiB (8%)
Alignment : Split accross interleaves
Interleave, duration : 40 ms (1.00 video frame)
Interleave, preload duration : 500 ms

Скриншоты




Показать сообщения:    

Текущее время: 08-Дек 17:25

Часовой пояс: UTC + 3


Вы не можете начинать темы
Вы не можете отвечать на сообщения
Вы не можете редактировать свои сообщения
Вы не можете удалять свои сообщения
Вы не можете голосовать в опросах
Вы не можете прикреплять файлы к сообщениям
Вы не можете скачивать файлы