Петр Чайковский - Спящая красавица (Моника Мейсон, Кристофер Ньютон, Росс Макгиббон, Борис Грузин) / The Sleeping Beauty (Monica Mason, Christopher Newton, Ross Macgibbon) [2011, Ballet, HDTVRip]


 

[Цитировать]

Петр Чайковский - Спящая красавица
The Sleeping Beauty
Год выпуска: 2011
Лейбл: Opus Arte Cinema Season
Страна-производитель: Великобритания
Жанр: Ballet
Продолжительность: 02:20:51
Язык: Английский
Перевод: Не требуется
Субтитры: Нет
Балет и оркестр: Королевского оперного театра
Дирижер: Борис Грузин
Режиссер/Хореограф: Моника Мейсон (Monica Mason), Элисон Грист (Alison Grist), Росс Макгиббон (Ross Macgibbon)
Исполнители:
Гари Эвис (Gary Avis) - Король Флорестан XXIV
Дженезия Росато (Genesia Rosato) - Королева
Лорен Катбертсон (Lauren Cuthbertson) - Принцесса Аврора, их дочь
Сергей Полунин - Принц Флоримунд
Аластаир Мэрриот (Alastair Marriott) - Каталабют, старший дворецкий короля Флорестана
Клэр Калверт (Claire Calvert) - Фея Сирени
Кристен Макнелли (Kristen Mcnally) - Карабос, злая фея

Описание: «Спящая красавица» — балет Петра Ильича Чайковского на либретто Ивана Всеволожского и Мариуса Петипа по сюжету одноимённой сказки Шарля Перро; состоит из трёх действий, пролога и апофеоза. Написан в 1889, представлен публике в 1890. До Чайковского к тому же самому сюжету обращался французский композитор Фердинанд Герольд, тоже сочинив балет с таким же названием (буквально: Спящая красавица леса — La Belle au bois dormant) по либретто Эжена Скриба. Этот балет впервые прошёл на сцене Парижской Оперы 27 августа 1829 в постановке балетмейстера Жана-Пьера Омера с участием Марии Тальони, Лиз Нобле и др. Новая версия Чайковского и Петипа была признана выдающейся и балет занял место среди мировых шедевров балетного искусства. Главные действующие лица балета: король Флорестан, королева, принцесса Аврора; семь фей: Сирень, Кандид (Искренность), Флёр-де-Фарин (Цветущие колосья), Хлебная Крошка, Канарейка, Виолант (Страсть) и злая Карабосс; принц Дезире. Наиболее известный номер балета — вальс из I акта. Постановка данной версии была во многом пропитана первоисточником, т.к режиссёр всё же не отошёл от неё, а лишь подчеркнул важность сохранения истинной хореографии, привнеся в неё много нового из своего личного опыта. Балет действительно удался и несмотря на то, что обычно беря исторический матрериал, заграницей его переделывают до неузнаваемости. Но «Спящая красавица» театра Англии редкое тому исключение.
Первоисточник: HDTV 1080i (HDClub)
Качество видео: HDTVRip
Формат/Контейнер: AVI
Видео кодек: XviD
Аудио кодек: AC3
Видео поток: MPEG-4 Visual, 1759 Кбит/сек, 704 x 400 (1.760), 25.000 fps, 0.25 bit/pixel
Аудио поток: AC-3, 448 Кбит/сек, 6 каналов, 48,0 КГц

MediaInfo

Общее
Полное имя : Spyaschaya.krasavitsa.2011.HDTVRip.avi
Формат : AVI
Формат/Информация : Audio Video Interleave
Профиль формата : OpenDML
Размер файла : 2,18 Гбайт
Продолжительность : 2 ч. 20 м.
Общий поток : 2219 Кбит/сек
Программа кодирования : VirtualDubMod 1.5.10.3 | www.virtualdub-fr.org || (build 2550/release)
Видео
Идентификатор : 0
Формат : MPEG-4 Visual
Профиль формата : Advanced Simple@L5
Параметр BVOP формата : 2
Параметр QPel формата : Нет
Параметр GMC формата : Без точки перехода
Параметр матрицы формата : Default (MPEG)
Идентификатор кодека : XVID
Идентификатор кодека/Подсказка : XviD
Продолжительность : 2 ч. 20 м.
Битрейт : 1759 Кбит/сек
Ширина : 704 пикселя
Высота : 400 пикселей
Соотношение сторон : 16:9
Частота кадров : 25,000 кадров/сек
Цветовое пространство : YUV
Субдискретизация насыщенности : 4:2:0
Битовая глубина : 8 бит
Тип развёртки : Прогрессивная
Метод сжатия : С потерями
Бит/(Пиксели*Кадры) : 0.250
Размер потока : 1,73 Гбайт (79%)
Библиотека кодирования : XviD 64
Аудио
Идентификатор : 1
Формат : AC-3
Формат/Информация : Audio Coding 3
Расширение режима : CM (complete main)
Идентификатор кодека : 2000
Продолжительность : 2 ч. 20 м.
Вид битрейта : Постоянный
Битрейт : 448 Кбит/сек
Каналы : 6 каналов
Расположение каналов : Front: L C R, Side: L R, LFE
Частота : 48,0 КГц
Битовая глубина : 16 бит
Метод сжатия : С потерями
Размер потока : 451 Мбайт (20%)
Выравнивание : Разделение по промежуткам
Продолжительность промежутка : 40 мс. (1,00 видеокадр)
Время предзагрузки промежутка : 500 мс.

Скриншоты




Показать сообщения:    

Текущее время: 05-Дек 13:33

Часовой пояс: UTC + 3


Вы не можете начинать темы
Вы не можете отвечать на сообщения
Вы не можете редактировать свои сообщения
Вы не можете удалять свои сообщения
Вы не можете голосовать в опросах
Вы не можете прикреплять файлы к сообщениям
Вы не можете скачивать файлы