Александр Глазунов - Раймонда (Сергей Вихарев, Михаил Юровский, Олеся Новикова) / Aleksandr Glazunov - Raymonda [2011, Ballet, HDTVRip]


 

[Цитировать]

Александр Глазунов - Раймонда
Aleksandr Glazunov - Raymonda
Год выпуска: 2011
Лейбл: RAI, Mezzo
Страна-производитель: Италия
Жанр: Ballet
Продолжительность: 02:33:34
Язык: Итальянский (титры)
Перевод: Не требуется
Субтитры: Нет
Балет и оркестр: Театра Ла Скала
Дирижер: Михаил Юровский
Режиссер/Хореограф: Сергей Вихарев
Исполнители:
Олеся Новикова - Раймонда, племянница графини де Дорис
Фридеман Фогель (Friedemann Vogel) - Рыцарь Жан де Бриен, жених Раймонды
Мик Зени (Mick Zeni) - Абдерахман, сарацинский рыцарь
Мария-Франческа Гарритано (Maria Francesca Garritano) - Генриетта, подруга Раймонды
Франческа Подини (Francesca Podini) - Клеманс, подруга Раймонды
Клаудио Ковьелло (Claudio Coviello) - Беранже, трубадур Аквитании
Марко Агостино (Marco Agostini) - Бернар, трубадур Провансаля
Сабина Джалассо (Sabina Galasso) - Графиня Сибилла де Дорис
Луиджи Саруджа (Luigi Saruggia) - Андрей II, король Венгрии

Описание: Музыка «Раймонды» принадлежит к числу выдающихся достижений русского музыкального искусства. Красота, яркая образность и мелодическая щедрость сочетаются в ней с действенностью, драматическим противопоставлением «европейских» и «восточных» интонаций; танцевальные эпизоды объединяются в стройные сюиты, а в симфонической партитуре широко используется система лейтмотивов. В I акте выделяется Большой вальс, удивительно пластичный, с выразительными мелодиями. Любовный дуэт II акта — Большое адажио с солирующей скрипкой, полное чувства и прекрасных мелодий. Испанский танец отличается экспрессией, увлекательной запоминающейся мелодией, зажигательным ритмом. Симфонический антракт перед последним актом сам композитор определил как «Торжество любви». В нем звучат многие темы Раймонды и де Бриена, возникает новая прекрасная мелодия. Центр акта представляет собой красочный дивертисмент. В Венгерском шествии слышны народные интонации (вербункош), они же проявляются и в следующих номерах — Большом венгерском танце, Чардаше, Танце детей, Классическом венгерском танце, и даже в Вариациях.
Исходный HDTV:
Качество видео: HDTVRip
Формат/Контейнер: AVI
Видео кодек: XviD
Аудио кодек: AC3
Видео поток: MPEG-4 Visual, 1768 Кбит/сек, 704 x 400 (1.760), 25.000 fps, 0.25 bit/pixel
Аудио поток: AC-3, 256 Кбит/сек, 2 канала, 48,0 КГц

MediaInfo

Общее
Полное имя : Glazunov-Raymonda.2011.HDTVRip.avi
Формат : AVI
Формат/Информация : Audio Video Interleave
Профиль формата : OpenDML
Размер файла : 2,18 Гбайт
Продолжительность : 2 ч. 33 м.
Общий поток : 2036 Кбит/сек
Программа кодирования : VirtualDubMod 1.5.10.3 | www.virtualdub-fr.org || (build 2550/release)
Библиотека кодирования : VirtualDubMod build 2550/release
Видео
Идентификатор : 0
Формат : MPEG-4 Visual
Профиль формата : Advanced Simple@L5
Параметр BVOP формата : 2
Параметр QPel формата : Нет
Параметр GMC формата : Без точки перехода
Параметр матрицы формата : Default (MPEG)
Идентификатор кодека : XVID
Идентификатор кодека/Подсказка : XviD
Продолжительность : 2 ч. 33 м.
Битрейт : 1768 Кбит/сек
Ширина : 704 пикселя
Высота : 400 пикселей
Соотношение сторон : 16:9
Частота кадров : 25,000 кадров/сек
Цветовое пространство : YUV
Субдискретизация насыщенности : 4:2:0
Битовая глубина : 8 бит
Тип развёртки : Прогрессивная
Метод сжатия : С потерями
Бит/(Пиксели*Кадры) : 0.251
Размер потока : 1,90 Гбайт (87%)
Библиотека кодирования : XviD 64
Аудио
Идентификатор : 1
Формат : AC-3
Формат/Информация : Audio Coding 3
Расширение режима : CM (complete main)
Идентификатор кодека : 2000
Продолжительность : 2 ч. 33 м.
Вид битрейта : Постоянный
Битрейт : 256 Кбит/сек
Каналы : 2 канала
Расположение каналов : Front: L R
Частота : 48,0 КГц
Битовая глубина : 16 бит
Метод сжатия : С потерями
Размер потока : 281 Мбайт (13%)
Выравнивание : Разделение по промежуткам
Продолжительность промежутка : 40 мс. (1,00 видеокадр)
Время предзагрузки промежутка : 500 мс.

Скриншоты




Показать сообщения:    

Текущее время: 09-Дек 16:36

Часовой пояс: UTC + 3


Вы не можете начинать темы
Вы не можете отвечать на сообщения
Вы не можете редактировать свои сообщения
Вы не можете удалять свои сообщения
Вы не можете голосовать в опросах
Вы не можете прикреплять файлы к сообщениям
Вы не можете скачивать файлы