Джордж Баланчин - Драгоценности (Форе, Стравинский, Чайковский, Лардж, Сохиев) / George Balanchine - Jewels (Faure, Large) [2006, Ballet, DVDRip]


 

[Цитировать]

Джордж Баланчин - Драгоценности
George Balanchine - Jewels
Год выпуска: 2006
Лейбл: ORF
Страна-производитель: Россия
Жанр: Ballet
Продолжительность: 01:31:35
Язык: Английский
Перевод: Не требуется
Субтитры: Нет
Балет и оркестр: Мариинского театра
Дирижер: Туган Сохиев
Режиссер/Хореограф: Брайан Лардж, Валерий Гергиев
Исполнители: Ульяна Лопаткина, Игорь Зеленский, Ирина Голуб, Андриан Фадеев, Жанна Аюпова
Описание: «Драгоценности» - как триада Гегеля. Собственно, это и есть триада. Изумруды – рубины - бриллианты. Вчера – сегодня - всегда... Первая часть – XIX век, музыка Форе, нечто возвышенное, романтическое, природное общее место изумрудно-зелёное – моря, леса. Вторая часть – XX век. Музыка Стравинского агрессивная, острая. Солирущее фортепиано отсылает к синематографу под тапёра. Если в первой части архаичный театр, то во второй – кино. Если в первой части – природа, то во второй – город. Действие происходит где-нибудь «в комнате наверху» (красный цвет, пробежки и непрерывное движение немного напоминают постановку Твайлы Тарп из «Вечера американской хореографии» в Большом театре, конечно наоборот, это Тварп вспоминает о Баланчине). Развязная, наступательная пластика, атака рубинового цвета, металлическое позвякивание деталей костюмов – вот двадцатый век, шеренги масс выходят на историческую сцену, плавное романтическое изящество отброшено – механическая прямота и простонародный петрушечный выверт. Ещё во время второй части можно было догадаться, что будет в третьей. Триада должна разрешиться белым цветом. Определённое, временнОе - чем-то не привязанным ко времени. Музыкальный аккомпанемент Форе и Стравинского – «абсолютной» музыкой Чайковского. Действие происходит всегда (и никогда), везде (и нигде). В космосе, где проливается божественный свет, где звучит музыка небесных сфер. Сценическая гармония подобна идеальному, гармонично устроенному гегелевскому государству – абсолютной монархии. Но в музыке Чайковского чётко проступает русская песенная основа и это сразу отражается в пластике и тогда понимаешь, что абсолютное гегелевское государство для Баланчина - это Российская Империя. Которая и не существовала никогда и возможно никогда не будет существовать. Разве только в представлении, в идеализированных воспоминаниях о Золотом веке, или в будущем, в бесконечной перспективе. Кристалл идеально твёрдый, идеально прозрачный, идеально правильной формы. Но при этом наполненный теплом и светом (как правильная музыка Чайковского широтой народной души). Блистательный Санкт-Петербург. Император и императрица, дворяне на военных парадах, дамы и кавалеры на придворных балах, шеренги солдат, крестьянки в геометрически четких хороводах, солисты и кордебалет Императорского театра. Идеально симметричная иерархическая структура с математической точностью подводящая к вершине...

Постановка

• Изумруды. Музыка Габриэля Форе (Пеллеас и Мелизанда; Шейлок)
Исполнители: Жанна Аюпова, Денис Фирсов, Дарья Сухорукова, Дмитрий Семёнов, Яна Селина, Ксения Острейковская, Антон Корсаков
• Рубины. Музыка Игоря Стравинского (Каприччио для фортепиано с оркестром)
Исполнители: Ирина Голуб, Андриан Фадеев, София Гумерова
• Бриллианты. Музыка Петра Чайковского (Симфония № 3 ре мажор, 1875; II, III, IV и V части)
Исполнители: Ульяна Лопаткина, Игорь Зеленский
Хореография Джорджа Баланчина (1967г.)
Балетмейстеры-постановщики: Карин фон Арольдинген, Сара Леланд, Элиз Борн, Шон Лавери
Сценография: Питер Харви
Костюмы: Каринска
Консультант по костюмам: Холли Хайнс
Концепция света: Рональд Бейтс
Художник по свету: Перри Силвей
Постановка балета Джорджа Баланчина «Драгоценности» подготовлена в сотрудничестве с Фондом Джорджа Баланчина и выполнена в соответствии со стандартами стиля и техники Баланчина (Balanchine Style® and Balanchine Technique®), установленными и предоставленными Фондом Баланчина.
Запись постановки: апрель, 2006г.
Релиз на DVD: октябрь, 2011г.
Рецензия: Лев Семёркин, «Театральные дневники»
Другие раздачи: HDTVRip и DVD5
Качество видео: DVDRip
Формат/Контейнер: AVI
Видео кодек: XviD
Аудио кодек: AC3
Видео поток: MPEG-4 Visual, 1800 Кбит/сек, 704 x 400 (1.760), 23.976 fps, ~ 0.27 bit/pixel
Аудио поток: AC-3, 448 Кбит/сек, 6 каналов, 48,0 КГц

MediaInfo

Общее
Полное имя : Balanchine-Jewels.(3.iz.3).2006.DVDRip\Balanchine-Jewels.(1.iz.3.Emeralds).2006.DVDRip.avi
Формат : AVI
Формат/Информация : Audio Video Interleave
Размер файла : 512 Мбайт
Продолжительность : 31 м.
Общий поток : 2267 Кбит/сек
Программа кодирования : VirtualDubMod 1.5.10.3 | www.virtualdub-fr.org || (build 2550/release)
Видео
Идентификатор : 0
Формат : MPEG-4 Visual
Профиль формата : Advanced Simple@L5
Параметр BVOP формата : 2
Параметр QPel формата : Нет
Параметр GMC формата : Без точки перехода
Параметр матрицы формата : Default (MPEG)
Идентификатор кодека : XVID
Идентификатор кодека/Подсказка : XviD
Продолжительность : 31 м.
Битрейт : 1810 Кбит/сек
Ширина : 704 пикселя
Высота : 400 пикселей
Соотношение сторон : 16:9
Частота кадров : 23,976 кадра/сек
Цветовое пространство : YUV
Субдискретизация насыщенности : 4:2:0
Битовая глубина : 8 бит
Тип развёртки : Прогрессивная
Метод сжатия : С потерями
Бит/(Пиксели*Кадры) : 0.268
Размер потока : 408 Мбайт (80%)
Библиотека кодирования : XviD 64
Аудио
Идентификатор : 1
Формат : AC-3
Формат/Информация : Audio Coding 3
Расширение режима : CM (complete main)
Идентификатор кодека : 2000
Продолжительность : 31 м.
Вид битрейта : Постоянный
Битрейт : 448 Кбит/сек
Каналы : 6 каналов
Расположение каналов : Front: L C R, Side: L R, LFE
Частота : 48,0 КГц
Битовая глубина : 16 бит
Метод сжатия : С потерями
Размер потока : 101 Мбайт (20%)
Выравнивание : Разделение по промежуткам
Продолжительность промежутка : 42 мс. (1,00 видеокадр)
Время предзагрузки промежутка : 500 мс.
Общее
Полное имя : Balanchine-Jewels.(3.iz.3).2006.DVDRip\Balanchine-Jewels.(2.iz.3.Rubies).2006.DVDRip.avi
Формат : AVI
Формат/Информация : Audio Video Interleave
Размер файла : 379 Мбайт
Продолжительность : 23 м.
Общий поток : 2267 Кбит/сек
Программа кодирования : VirtualDubMod 1.5.10.3 | www.virtualdub-fr.org || (build 2550/release)
Видео
Идентификатор : 0
Формат : MPEG-4 Visual
Профиль формата : Advanced Simple@L5
Параметр BVOP формата : 2
Параметр QPel формата : Нет
Параметр GMC формата : Без точки перехода
Параметр матрицы формата : Default (MPEG)
Идентификатор кодека : XVID
Идентификатор кодека/Подсказка : XviD
Продолжительность : 23 м.
Битрейт : 1810 Кбит/сек
Ширина : 704 пикселя
Высота : 400 пикселей
Соотношение сторон : 16:9
Частота кадров : 23,976 кадра/сек
Цветовое пространство : YUV
Субдискретизация насыщенности : 4:2:0
Битовая глубина : 8 бит
Тип развёртки : Прогрессивная
Метод сжатия : С потерями
Бит/(Пиксели*Кадры) : 0.268
Размер потока : 303 Мбайт (80%)
Библиотека кодирования : XviD 64
Аудио
Идентификатор : 1
Формат : AC-3
Формат/Информация : Audio Coding 3
Расширение режима : CM (complete main)
Идентификатор кодека : 2000
Продолжительность : 23 м.
Вид битрейта : Постоянный
Битрейт : 448 Кбит/сек
Каналы : 6 каналов
Расположение каналов : Front: L C R, Side: L R, LFE
Частота : 48,0 КГц
Битовая глубина : 16 бит
Метод сжатия : С потерями
Размер потока : 74,9 Мбайт (20%)
Выравнивание : Разделение по промежуткам
Продолжительность промежутка : 42 мс. (1,00 видеокадр)
Время предзагрузки промежутка : 500 мс.
Общее
Полное имя : Balanchine-Jewels.(3.iz.3).2006.DVDRip\Balanchine-Jewels.(3.iz.3.Diamonds).2006.DVDRip.avi
Формат : AVI
Формат/Информация : Audio Video Interleave
Размер файла : 594 Мбайт
Продолжительность : 36 м.
Общий поток : 2263 Кбит/сек
Программа кодирования : VirtualDubMod 1.5.10.3 | www.virtualdub-fr.org || (build 2550/release)
Видео
Идентификатор : 0
Формат : MPEG-4 Visual
Профиль формата : Advanced Simple@L5
Параметр BVOP формата : 2
Параметр QPel формата : Нет
Параметр GMC формата : Без точки перехода
Параметр матрицы формата : Default (MPEG)
Идентификатор кодека : XVID
Идентификатор кодека/Подсказка : XviD
Продолжительность : 36 м.
Битрейт : 1806 Кбит/сек
Ширина : 704 пикселя
Высота : 400 пикселей
Соотношение сторон : 16:9
Частота кадров : 23,976 кадра/сек
Цветовое пространство : YUV
Субдискретизация насыщенности : 4:2:0
Битовая глубина : 8 бит
Тип развёртки : Прогрессивная
Метод сжатия : С потерями
Бит/(Пиксели*Кадры) : 0.267
Размер потока : 474 Мбайт (80%)
Библиотека кодирования : XviD 64
Аудио
Идентификатор : 1
Формат : AC-3
Формат/Информация : Audio Coding 3
Расширение режима : CM (complete main)
Идентификатор кодека : 2000
Продолжительность : 36 м.
Вид битрейта : Постоянный
Битрейт : 448 Кбит/сек
Каналы : 6 каналов
Расположение каналов : Front: L C R, Side: L R, LFE
Частота : 48,0 КГц
Битовая глубина : 16 бит
Метод сжатия : С потерями
Размер потока : 118 Мбайт (20%)
Выравнивание : Разделение по промежуткам
Продолжительность промежутка : 42 мс. (1,00 видеокадр)
Время предзагрузки промежутка : 500 мс.

Скриншоты




Показать сообщения:    

Текущее время: 04-Дек 02:55

Часовой пояс: UTC + 3


Вы не можете начинать темы
Вы не можете отвечать на сообщения
Вы не можете редактировать свои сообщения
Вы не можете удалять свои сообщения
Вы не можете голосовать в опросах
Вы не можете прикреплять файлы к сообщениям
Вы не можете скачивать файлы