Цезарь Пуни - Эсмеральда (Юрий Бурлака, Василий Медведев, Павел Клиничев, Винсент Батайон) / Cesare Pugni - La Esmeralda (Vincent Bataglion) [2011, Ballet, HDTVRip]


 

[Цитировать]

Цезарь Пуни - Эсмеральда
Cesare Pugni - La Esmeralda
Год выпуска: 2011
Лейбл: Bel Air Media
Страна-производитель: Россия
Жанр: Ballet
Продолжительность: 02:42:31
Язык: Английский, французский
Перевод: Не требуется
Субтитры: Нет
Балет и оркестр: Государственного академического Большого театра России
Дирижер: Павел Клиничев
Режиссер/Хореограф: Юрий Бурлака, Василий Медведев, Винсент Батайон (Vincent Bataglion)
Исполнители:
Мария Александрова - Эсмеральда, цыганка
Денис Савин - Пьер Гренгуар, бедный поэт
Руслан Скворцов - Феб де Шатопер, капитан королевских стрелков
Екатерина Крысанова - Флер де Лис, невеста Феба
Кристина Карасева - Алоиза де Гонделорье, ее мать
Чинара Ализаде, Мария Виноградова - Диана, Беранже, подруги Флер де Лис
Артем Овчаренко, Владислав Лантратов - Альбер, Флоран, офицеры, друзья Феба
Алексей Лопаревич - Клод Фролло, архидьякон собора Парижской Богоматери
Игорь Цвирко - Квазимодо, звонарь собора Парижской Богоматери
Виталий Биктимиров - Клопен Трульфу, главарь шайки бродяг
«Вальс старого Парижа»
Анна Антропова, Анна Балукова, Александр Водопетов, Антон Савичев
Мифологический балет «Диана и Актеон»
Анастасия Сташкевич, Вячеслав Лопатин - Диана, Актеон
«Праздник шутов»
Елизавета Крутелева, Мария Мишина, Анна Проскурнина, Ксения Пчелкина, Батыр Аннадурдыев, Дмитрий Загребин, Алексей Матрахов, Андрей Рыбаков

Описание: Шедевр хореографического наследия XIX века балет «Эсмеральда» возвращается в Большой театр. Одна из последних балетных премьер Большого театра 9 октября транслировалась в прямом эфире в кинотеатры США, Канады, Японии и Латинской Америки. Прямую трансляцию балетного спектакля из ГАБТа вела французская записывающая компания Bel Air Media. Роль одной из самых знаменитых на свете цыганок исполнила прима Большого Мария Александрова. Её партнерами стали также ведущие солисты театра Руслан Скворцов, Екатерина Крысанова, Денис Савин. Уже более полутора веков живёт на балетной сцене «Эсмеральда», сюжет которой навеян романом Виктора Гюго «Собор Парижской Богоматери». Впервые спектакль был поставлен французским хореографом Жюлем Перро в 1844 году, правда, случилось это не в Париже, а в Лондонском Королевском театре. Через четыре года та же постановка была перенесена в Россию. Потом, спустя ещё почти сорок лет - в 1886 году - «Эсмеральду» в Мариинском театре поставит Мариус Петипа, который сделает ещё одну редакцию в 1899 году. Именно эту версию три года назад - в 2009 году восстановили в Большом театре тогдашний худрук балетной труппы ГАБТа, историк хореографии Юрий Бурлака, пригласивший к сотрудничеству своего коллегу - петербургского хореографа Василия Медведева. В новой постановке «Эсмеральды» сохранена хореография Мариуса Петипа, Жюля Перро, Агриппины Вагановой и добавлена, где необходимо, хореография Юрия Бурлаки и Василия Медведева. В итоге в свете рампы был возрождён спектакль, более 100 лет собирающий неизменные аншлаги.
Первоисточник (HDTV 1080i): HDClub.org
Качество видео: HDTVRip
Формат/Контейнер: AVI
Видео кодек: XviD
Аудио кодек: AC3
Видео поток: MPEG-4 Visual, 1530 Кбит/сек, 704 x 400 (1.760), 25.000 fps, 0.22 bit/pixel
Аудио поток: AC-3, 384 Кбит/сек, 6 каналов, 48,0 КГц

MediaInfo

Общее
Полное имя : Pugni-La.Esmeralda.2011.HDTVRip.avi
Формат : AVI
Формат/Информация : Audio Video Interleave
Профиль формата : OpenDML
Размер файла : 2,19 Гбайт
Продолжительность : 2 ч. 42 м.
Общий поток : 1926 Кбит/сек
Программа кодирования : VirtualDubMod 1.5.10.3 | www.virtualdub-fr.org || (build 2550/release)
Видео
Идентификатор : 0
Формат : MPEG-4 Visual
Профиль формата : Advanced Simple@L5
Параметр BVOP формата : 2
Параметр QPel формата : Нет
Параметр GMC формата : Без точки перехода
Параметр матрицы формата : Default (MPEG)
Идентификатор кодека : XVID
Идентификатор кодека/Подсказка : XviD
Продолжительность : 2 ч. 42 м.
Битрейт : 1530 Кбит/сек
Ширина : 704 пикселя
Высота : 400 пикселей
Соотношение сторон : 16:9
Частота кадров : 25,000 кадров/сек
Цветовое пространство : YUV
Субдискретизация насыщенности : 4:2:0
Битовая глубина : 8 бит
Тип развёртки : Прогрессивная
Метод сжатия : С потерями
Бит/(Пиксели*Кадры) : 0.217
Размер потока : 1,74 Гбайт (79%)
Библиотека кодирования : XviD 64
Аудио
Идентификатор : 1
Формат : AC-3
Формат/Информация : Audio Coding 3
Расширение режима : CM (complete main)
Идентификатор кодека : 2000
Продолжительность : 2 ч. 42 м.
Вид битрейта : Постоянный
Битрейт : 384 Кбит/сек
Каналы : 6 каналов
Расположение каналов : Front: L C R, Side: L R, LFE
Частота : 48,0 КГц
Битовая глубина : 16 бит
Метод сжатия : С потерями
Размер потока : 446 Мбайт (20%)
Выравнивание : Разделение по промежуткам
Продолжительность промежутка : 40 мс. (1,00 видеокадр)
Время предзагрузки промежутка : 500 мс.

Скриншоты




Показать сообщения:    

Текущее время: 10-Дек 23:27

Часовой пояс: UTC + 3


Вы не можете начинать темы
Вы не можете отвечать на сообщения
Вы не можете редактировать свои сообщения
Вы не можете удалять свои сообщения
Вы не можете голосовать в опросах
Вы не можете прикреплять файлы к сообщениям
Вы не можете скачивать файлы