Танцуем Равеля и Дебюсси / Danser Ravel et Debussy (Anne Teresa De Keersmaeker, Thomas Hauert) (Maurice Ravel, Claude Debussy) [2011, Ballet, Modern dance, HDTVRip]


 

[Цитировать]

Танцуем Равеля и Дебюсси / Danser Ravel et Debussy
Год выпуска: 2011
Страна-производитель: Франция, Бельгия
Жанр: Ballet, Modern dance
Продолжительность: 00:59:39
Перевод: не требуется
Субтитры: нет
Режиссер/Хореограф: Anne Teresa De Keersmaeker, Thomas Hauert
Музыка: Морис Равель (Maurice Ravel), Клод Дебюсси (Claude Debussy)
Описание:
В фильме режиссера Thierry De Mey представлены три хореографических постановки на музыку Равеля и Дебюсси в исполнении бельгийских танцоров.
Треклист:
1. Ma Mere I`Oye / Meine Mutter, die Gans
34 choreografische Vorschlage, music Maurice Ravel
Interpretee par The New York Philharmonic sous la direction Pierre Boulez
2. Prelude a la mer / Der Nachmittag eines Fauns
Anne Teresa De Keersmaeker, music Claude Debussy
Interpretee par The L`Orchestre de I`ORTE sous la direction Jean Martinon
3. La Valse / Der Walzer
Thomas Hauert, music Maurice Ravel
Interpretee par The Vienna Philharmonic sous la direction Lorin Maazel
Качество видео: HDTVRip
Формат/Контейнер: AVI
Видео кодек: XviD
Аудио кодек: MP3
Видео поток: Xvid 720x416 29.97fps 2234kbps
Аудио поток: MPEG Audio Layer 3 48000Hz stereo 256kbps
Сэмпл http://multi-up.com/575619

MediaInfo

Format : AVI
Format/Info : Audio Video Interleave
File size : 1.04 GiB
Duration : 59mn 39s
Overall bit rate : 2 499 Kbps
Writing application : VirtualDubMod 1.5.4.1 (build 2178/release)
Writing library : VirtualDubMod build 2178/release
Video
ID : 0
Format : MPEG-4 Visual
Format profile : Advanced Simple@L5
Format settings, BVOP : Yes
Format settings, QPel : No
Format settings, GMC : No warppoints
Format settings, Matrix : Custom
Codec ID : XVID
Codec ID/Hint : XviD
Duration : 59mn 39s
Bit rate : 2 235 Kbps
Width : 720 pixels
Height : 416 pixels
Display aspect ratio : 16:9
Frame rate : 29.970 fps
Color space : YUV
Chroma subsampling : 4:2:0
Bit depth : 8 bits
Scan type : Progressive
Bits/(Pixel*Frame) : 0.249
Stream size : 954 MiB (89%)
Writing library : XviD 1.1.2 (UTC 2006-11-01)
Audio
ID : 1
Format : MPEG Audio
Format version : Version 1
Format profile : Layer 3
Mode : Joint stereo
Codec ID : 55
Codec ID/Hint : MP3
Duration : 59mn 35s
Bit rate mode : Constant
Bit rate : 256 Kbps
Channel(s) : 2 channels
Sampling rate : 48.0 KHz
Stream size : 109 MiB (10%)
Alignment : Aligned on interleaves
Interleave, duration : 67 ms (2.00 video frames)
Interleave, preload duration : 504 ms
Writing library : LAME3.97
Encoding settings : -m j -V 4 -q 2 -lowpass 19.7



Показать сообщения:    

Текущее время: 05-Дек 07:26

Часовой пояс: UTC + 3


Вы не можете начинать темы
Вы не можете отвечать на сообщения
Вы не можете редактировать свои сообщения
Вы не можете удалять свои сообщения
Вы не можете голосовать в опросах
Вы не можете прикреплять файлы к сообщениям
Вы не можете скачивать файлы