Даниэль Обер - Марко Спада (Рудольф Нуреев) / Daniel Francois Esprit Auber - Marco Spada (Pierre Lacotte, Giuseppe Russi, Alberto Ventura) [1982, Ballet, DVDRip]


 

[Цитировать]

Даниэль Обер - Марко Спада
Daniel Auber - Marco Spada
Год выпуска: 1982
Лейбл: Rai Trade, Hardy Classic Video
Страна-производитель: Италия
Жанр: Ballet
Продолжительность: 01:36:07
Язык: Итальянский
Перевод: Не требуется
Субтитры: Нет
Балет и оркестр: Римского оперного театра
Дирижер: Альберто Вентура (Alberto Ventura)
Режиссер/Хореограф: Пьер Лакотт (Pierre Lacotte), Джузеппе Русси (Giuseppe Russi)
Исполнители:
Рудольф Нуреев - Марко Спада
Жислен Тисмар (Ghislaine Thesmar) - Анжела, его дочь
Лючия Колоньято (Lucia Colognato) - Маркиза Сампьетри
Мишель Денар (Michael Denard) - Князь Федеричи, внук губернатора
Альфредо Райно (Alfredo Raino) - Граф Пепинелли, капитан драгунов
Франческо Нуччителли (Francesco Nuccitelli) - Брат Борромео, казначей монастыря
Алессандро Виго (Alessandro Vigo) - Князь Осорио, губернатор Рима
Паскуаль Сеталь (Pasquale Setale) - Хенаро, римский бандит
Па-де-де - Паола Каталини (Paola Catalini) и Луиджи Мартеллетта (Luigi Martelletta)
Хореография, декорации и костюмы - Пьер Лакотт (Pierre Lacotte)
Либретто - Эжен Скриб (Eugene Scribe), в адаптации Пьера Лакотта (Pierre Lacotte)
Режиссёр видеозаписи - Адриана Боргоново (Adriana Borgonovo)

Описание: Переработанная в балет (1857г.) опера «Марко Спада, или Дочь бандита» (1852г.) Даниэля Франсуа Эспри Обера. Невероятно красивая постановка с Рудольфом Нуреевым и Жислен Тисмар. Множество сложных номеров, Нурееву было почти 44 года, когда он станцевал в «Марко Спада», но его актёрское мастерство, артистичность и музыкальность просто фантастические. Красивые костюмы и декорации. Пьер Лакотт сохранил в легенде название этого спектакля, приковывавшего к себе внимание в пору сценического бытия. Реконструкция балета, конечно, не подлинник, и честнее всего определить его как «ретро», но эта постановка заслуженно вошла в шедевры. «Произведения Обера суть малые творения великого музыканта...» - Джоаккино Россини.
Релиз этого спектакля в DVD
Качество видео: DVDRip
Формат/Контейнер: AVI
Видео кодек: XviD
Аудио кодек: AC3
Видео поток: MPEG-4 Visual, 1704 Кбит/сек, 704 x 528 (1.333), 29.970 fps, 0.15 bit/pixel
Аудио поток: AC-3, 448 Кбит/сек, 6 каналов, 48,0 КГц

MediaInfo

Общее
Полное имя : Auber-Marco.Spada.1982.DVDRip.avi
Формат : AVI
Формат/Информация : Audio Video Interleave
Размер файла : 1,45 Гбайт
Продолжительность : 1 ч. 36 м.
Общий поток : 2164 Кбит/сек
Программа кодирования : VirtualDubMod 1.5.10.3 | www.virtualdub-fr.org || (build 2550/release)
Видео
Идентификатор : 0
Формат : MPEG-4 Visual
Профиль формата : Advanced Simple@L5
Параметр BVOP формата : 2
Параметр QPel формата : Нет
Параметр GMC формата : Без точки перехода
Параметр матрицы формата : Default (MPEG)
Идентификатор кодека : XVID
Идентификатор кодека/Подсказка : XviD
Продолжительность : 1 ч. 36 м.
Битрейт : 1704 Кбит/сек
Ширина : 704 пикселя
Высота : 528 пикселей
Соотношение сторон : 4:3
Частота кадров : 29,970 кадров/сек
Цветовое пространство : YUV
Субдискретизация насыщенности : 4:2:0
Битовая глубина : 8 бит
Тип развёртки : Прогрессивная
Метод сжатия : С потерями
Бит/(Пиксели*Кадры) : 0.153
Размер потока : 1,14 Гбайт (79%)
Библиотека кодирования : XviD 64
Аудио
Идентификатор : 1
Формат : AC-3
Формат/Информация : Audio Coding 3
Расширение режима : CM (complete main)
Идентификатор кодека : 2000
Продолжительность : 1 ч. 36 м.
Вид битрейта : Постоянный
Битрейт : 448 Кбит/сек
Каналы : 6 каналов
Расположение каналов : Front: L C R, Side: L R, LFE
Частота : 48,0 КГц
Битовая глубина : 16 бит
Метод сжатия : С потерями
Размер потока : 308 Мбайт (21%)
Выравнивание : Разделение по промежуткам
Продолжительность промежутка : 33 мс. (1,00 видеокадр)
Время предзагрузки промежутка : 500 мс.

Скриншоты




Показать сообщения:    

Текущее время: 09-Дек 03:05

Часовой пояс: UTC + 3


Вы не можете начинать темы
Вы не можете отвечать на сообщения
Вы не можете редактировать свои сообщения
Вы не можете удалять свои сообщения
Вы не можете голосовать в опросах
Вы не можете прикреплять файлы к сообщениям
Вы не можете скачивать файлы