Фредерик Шопен - Дама с камелиями (Джон Ноймайер, Михаэль Шмидсдорф, Аньес Летестю, Жозе Мартинез, Карл Пакетт) / Frederick Chopin - La Dame aux camelias (Die Kameliendame) (Neumeier, Schmidtsdorff, Letestu) [2009, Ballet, Blu-ray disc 1080p]


 

[Цитировать]

-Шопен - Дама с камелиями / Chopin - La Dame aux camelias-Год выпуска: 2008
Лейбл: Opus Arte
Страна-производитель: Франция
Жанр: Ballet
Продолжительность: 02:11:33
Перевод: Не требуется
Балет и оркестр: Парижской национальной оперы
Дирижер: Михаэль Шмидсдорф
Режиссер/Хореограф: Джон Ноймайер
Исполнители: Аньес Летестю, Стефан Бюйон, Микаэль Денар, Дороти Жильбер, Дельфин Муссен, Жозе Мартинез, Эва Гринзтаж, Карл Пакетт
Описание: Премьера спектакля прошла в Штутгарте в 1978 году с Марсией Хайде в роли Маргариты. Именно с него в началась мировая слава хореографа Джона Ноймайера. В спектакле соединились популярный сюжет, мелодичная музыка Шопена, роскошные исторические костюмы и декорации и изобилие красивых танцев. В Парижской Опере Ноймайер поставил «Даму с камелиями» специально для Аньес Летестю, которая была принята в труппу ещё при Рудольфе Нуриеве. Это одна из самых красивых Маргарит, которая становится настоящей парижской куртизанкой на сцене. А балет, как никакой другой, несёт в себе настоящий парижский дух...
«Даму с камелиями» хореограф Ноймайер выстроил на приёме флэшбека: каждое действие спектакля начинается сценой распродажи имущества покойной Маргариты - в пустеющей комнате Арман Дюваль, рыдая в объятиях отцах, вспоминает историю своей любви. Три гигантских, очень разных по внутреннему состоянию героев любовных дуэта становятся кульминацией каждого акта; вокруг них концентрируются массовые сцены - спектакль в парижском Варьете, бал-маскарад в особняке героини, пикник в её загородном доме, прогулка на Елисейских Полях. К «реальным» персонажам Дюма-сына хореограф прибавил лишь любимые балетом «видения»: героине то и дело мерещится Манон Леско (историю которой разыгрывают артисты на спектакле в Варьете) - с этой куртизанкой XVIII века отождествляет себя куртизанка XIX столетия... Труппе Парижской оперы «Дама с камелиями» чрезвычайно к лицу. Никто, кроме парижанок, не способен так непринуждённо танцевать в роскошных платьях с кринолинами, обмахиваться веерами, носить драгоценности, убивать взглядом соперниц и обволакивать мужчин. Никто, кроме парижан, не сможет чувствовать себя так естественно во фраках с балетными трико вместо панталон, так поправлять манжеты, дарить букеты, целовать руку даме. «Живой» Шопен (а некоторые сцены балета идут под соло рояля) придаёт куртуазной атмосфере спектакля пленительную достоверность.
Запись выступления в Парижском дворце Гарнье, июль 2008 год. Релиз на DVD - 2009 год.-Доп. информация: Балет записан в Palais Garnier, Paris, 2, 5 и 8 июля 2008г.-Качество видео: Blu-ray disc [Chopin: La Dame aux camelias 2008 2-Disc Edition Blu-ray 1080i AVC LPCM5.0]
Формат/Контейнер: BDMV
Видео кодек: H.264
Аудио кодек: LPCM Audio
Видео поток: MPEG-4 AVC Video 36000 kbps 1080i / 29.970 fps / 16:9 / High Profile 4.1
Аудио поток: LPCM Audio English 5760 kbps 5.0 / 48 kHz / 5760 kbps / 24-bit
Аудио поток: LPCM Audio English 2304 kbps 2.0 / 48 kHz / 2304 kbps / 24-bit

BDInfodisk 1

Disc Title: LA_DAME_AUX_CAMELIAS_DISС1Disc Size: 44 660 734 276 bytesProtection: AACSBD-Java: No
Notes:
BDINFO HOME AND REPORTS SUBMISSION: Cinema Squid http://www.cinemasquid.com/Tools.aspx
INCLUDES FORUMS REPORT FOR: Unofficial Blu-ray Audio and Video Specifications Thread http://www.avsforum.com/avs-vb/showthread.php?t=760714 http://forum.blu-ray.com/showthread.php?t=3338
********************PLAYLIST: 00005.MPLS********************
Total   Video
Title                                                           Codec   Length  Movie Size      Disc Size       Bitrate Bitrate Main Audio Track                          Secondary Audio Track
-----                                                           ------  ------- --------------  --------------  ------- ------- ------------------                        ---------------------
00005.MPLS                                                      AVC     1:20:40 28 726 849 536  44 660 734 276  47,47   36,00   LPCM 5.0 5760Kbps (48kHz/24-bit)          LPCM 2.0 2304Kbps (48kHz/24-bit)
DISC INFO:
Disc Title:     LA_DAME_AUX_CAMELIAS_DISС1
Disc Size:      44 660 734 276 bytes
Protection:     AACS
BD-Java:        No
PLAYLIST REPORT:
Name:                   00005.MPLS
Size:                   28 726 849 536 bytes
Length:                 1:20:40 (h:m:s)
Total Bitrate:          47,47 Mbps
Description:
VIDEO:
Codec                   Bitrate             Description
-----                   -------             -----------
MPEG-4 AVC Video        36000 kbps          1080i / 29,970 fps / 16:9 / High Profile 4.1
AUDIO:
Codec                           Language        Bitrate         Description
-----                           --------        -------         -----------
LPCM Audio                      English         5760 kbps       5.0 / 48 kHz / 5760 kbps / 24-bit
LPCM Audio                      English         2304 kbps       2.0 / 48 kHz / 2304 kbps / 24-bit
FILES:
Name            Time In         Length          Size            Total Bitrate
----            -------         ------          ----            -------------
00008.M2TS      0:00:00.000     1:20:40.869     28 726 849 536  47 474
CHAPTERS:
Number          Time In         Length          Avg Video Rate  Max 1-Sec Rate  Max 1-Sec Time  Max 5-Sec Rate  Max 5-Sec Time  Max 10Sec Rate  Max 10Sec Time  Avg Frame Size  Max Frame Size  Max Frame Time
------          -------         ------          --------------  --------------  --------------  --------------  --------------  --------------  --------------  --------------  --------------  --------------
1               0:00:00.000     0:06:18.277     36 018 kbps     40 616 kbps     00:03:01.648    37 441 kbps     00:05:07.640    36 887 kbps     00:03:36.316    150 213 bytes   758 752 bytes   00:00:11.878
2               0:06:18.277     0:14:58.797     36 001 kbps     44 526 kbps     00:07:17.870    38 481 kbps     00:07:14.867    37 230 kbps     00:07:40.726    150 153 bytes   666 070 bytes   00:20:13.745
3               0:21:17.075     0:09:47.153     35 999 kbps     42 676 kbps     00:25:24.556    38 569 kbps     00:25:22.187    37 186 kbps     00:25:18.183    150 146 bytes   630 457 bytes   00:25:51.917
4               0:31:04.229     0:09:16.222     35 998 kbps     42 518 kbps     00:38:33.511    38 304 kbps     00:39:28.165    37 242 kbps     00:38:25.836    150 140 bytes   594 657 bytes   00:34:20.324
5               0:40:20.451     0:06:25.852     36 005 kbps     44 160 kbps     00:41:56.080    38 726 kbps     00:41:17.441    37 308 kbps     00:41:12.436    150 170 bytes   558 434 bytes   00:42:53.137
6               0:46:46.303     0:01:25.218     35 971 kbps     40 608 kbps     00:48:10.520    36 895 kbps     00:48:06.516    36 420 kbps     00:48:01.511    150 028 bytes   505 048 bytes   00:48:11.255
7               0:48:11.521     0:01:09.002     36 011 kbps     39 321 kbps     00:49:18.989    36 897 kbps     00:49:15.519    36 535 kbps     00:49:10.514    150 195 bytes   501 634 bytes   00:49:05.642
8               0:49:20.524     0:02:37.123     35 981 kbps     43 935 kbps     00:50:37.434    37 715 kbps     00:50:33.530    36 823 kbps     00:49:48.518    150 071 bytes   577 083 bytes   00:50:17.714
9               0:51:57.647     0:09:33.973     36 004 kbps     41 625 kbps     00:53:17.327    37 482 kbps     00:52:25.842    36 762 kbps     01:00:04.968    150 168 bytes   662 414 bytes   00:53:38.215
10              1:01:31.621     0:02:09.028     35 975 kbps     40 704 kbps     01:03:07.083    37 178 kbps     01:02:01.718    36 806 kbps     01:01:41.631    150 046 bytes   656 920 bytes   01:03:08.084
11              1:03:40.650     0:03:15.895     36 014 kbps     40 316 kbps     01:05:00.029    37 214 kbps     01:05:18.514    36 633 kbps     01:06:28.851    150 208 bytes   594 178 bytes   01:05:43.372
12              1:06:56.545     0:06:47.140     35 999 kbps     40 554 kbps     01:11:27.716    37 411 kbps     01:10:00.362    36 644 kbps     01:12:53.836    150 145 bytes   591 983 bytes   01:13:00.476
13              1:13:43.685     0:02:07.727     35 983 kbps     40 302 kbps     01:13:49.124    37 147 kbps     01:14:30.799    36 565 kbps     01:14:25.761    150 079 bytes   547 560 bytes   01:15:11.473
14              1:15:51.413     0:01:40.200     36 003 kbps     40 856 kbps     01:17:17.799    37 564 kbps     01:17:15.364    36 802 kbps     01:16:16.104    150 163 bytes   668 013 bytes   01:17:18.767
15              1:17:31.613     0:03:09.255     35 975 kbps     41 057 kbps     01:18:55.931    37 697 kbps     01:18:51.893    37 032 kbps     01:18:46.888    150 072 bytes   752 785 bytes   01:20:09.638
STREAM DIAGNOSTICS:
File            PID             Type            Codec           Language                Seconds                 Bitrate                 Bytes           Packets
----            ---             ----            -----           --------                --------------          --------------          -------------   -----
00008.M2TS      4113 (0x1011)   0x1B            AVC                                     4840,869                36 000                  21 783 618 836  118 475 236
00008.M2TS      4352 (0x1100)   0x80            LPCM            eng (English)           4840,869                2 310                   1 398 043 256   7 745 392
00008.M2TS      4353 (0x1101)   0x80            LPCM            eng (English)           4840,869                6 918                   4 186 384 376   23 236 176

disk 2

Disc Title: LA_DAME_AUX_CAMELIAS_DISС2Disc Size: 18 345 459 076 bytesProtection: AACSBD-Java: No
Notes:
BDINFO HOME AND REPORTS SUBMISSION: Cinema Squid http://www.cinemasquid.com/Tools.aspx
INCLUDES FORUMS REPORT FOR: Unofficial Blu-ray Audio and Video Specifications Thread http://www.avsforum.com/avs-vb/showthread.php?t=760714 http://forum.blu-ray.com/showthread.php?t=3338
********************PLAYLIST: 00001.MPLS********************
Total   Video
Title                                                           Codec   Length  Movie Size      Disc Size       Bitrate Bitrate Main Audio Track                          Secondary Audio Track
-----                                                           ------  ------- --------------  --------------  ------- ------- ------------------                        ---------------------
00001.MPLS                                                      AVC     0:51:06 18 128 068 608  18 345 459 076  47,30   35,88   LPCM 5.0 5760Kbps (48kHz/24-bit)          LPCM 2.0 2304Kbps (48kHz/24-bit)
DISC INFO:
Disc Title:     LA_DAME_AUX_CAMELIAS_DISС2
Disc Size:      18 345 459 076 bytes
Protection:     AACS
BD-Java:        No
PLAYLIST REPORT:
Name:                   00001.MPLS
Size:                   18 128 068 608 bytes
Length:                 0:51:06 (h:m:s)
Total Bitrate:          47,30 Mbps
Description:
VIDEO:
Codec                   Bitrate             Description
-----                   -------             -----------
MPEG-4 AVC Video        35876 kbps          1080i / 29,970 fps / 16:9 / High Profile 4.1
AUDIO:
Codec                           Language        Bitrate         Description
-----                           --------        -------         -----------
LPCM Audio                      English         5760 kbps       5.0 / 48 kHz / 5760 kbps / 24-bit
LPCM Audio                      English         2304 kbps       2.0 / 48 kHz / 2304 kbps / 24-bit
FILES:
Name            Time In         Length          Size            Total Bitrate
----            -------         ------          ----            -------------
00003.M2TS      0:00:00.000     0:50:52.082     18 111 657 984  47 474
00004.M2TS      0:50:52.082     0:00:14.014     16 410 624      9 368
CHAPTERS:
Number          Time In         Length          Avg Video Rate  Max 1-Sec Rate  Max 1-Sec Time  Max 5-Sec Rate  Max 5-Sec Time  Max 10Sec Rate  Max 10Sec Time  Avg Frame Size  Max Frame Size  Max Frame Time
------          -------         ------          --------------  --------------  --------------  --------------  --------------  --------------  --------------  --------------  --------------  --------------
1               0:00:00.000     0:00:13.747     37 093 kbps     42 869 kbps     00:00:12.278    37 963 kbps     00:00:08.274    37 381 kbps     00:00:03.737    154 335 bytes   566 354 bytes   00:00:05.004
2               0:00:13.747     0:04:07.146     35 957 kbps     40 510 kbps     00:02:03.923    37 518 kbps     00:02:00.653    37 207 kbps     00:01:57.283    149 972 bytes   596 713 bytes   00:00:23.757
3               0:04:20.893     0:03:24.804     36 022 kbps     43 083 kbps     00:06:36.729    38 007 kbps     00:06:32.525    37 080 kbps     00:06:29.555    150 241 bytes   716 606 bytes   00:07:40.026
4               0:07:45.698     0:10:31.464     36 000 kbps     41 566 kbps     00:17:49.802    37 595 kbps     00:15:35.034    36 970 kbps     00:09:29.502    150 149 bytes   767 180 bytes   00:17:50.769
5               0:18:17.162     0:05:59.258     36 023 kbps     44 803 kbps     00:21:00.659    38 473 kbps     00:20:57.255    37 424 kbps     00:20:52.251    150 245 bytes   626 523 bytes   00:20:31.730
6               0:24:16.421     0:07:29.682     35 974 kbps     44 106 kbps     00:29:37.375    37 776 kbps     00:26:13.939    37 073 kbps     00:29:29.367    150 041 bytes   637 669 bytes   00:31:33.658
7               0:31:46.104     0:08:51.163     36 011 kbps     44 657 kbps     00:35:24.388    39 342 kbps     00:35:20.885    38 122 kbps     00:35:15.813    150 194 bytes   704 978 bytes   00:32:46.965
8               0:40:37.268     0:02:54.674     35 960 kbps     40 182 kbps     00:43:20.764    37 173 kbps     00:42:24.141    36 654 kbps     00:42:19.236    149 982 bytes   618 248 bytes   00:43:21.732
9               0:43:31.942     0:02:26.813     36 002 kbps     40 332 kbps     00:45:56.920    37 638 kbps     00:45:39.503    36 921 kbps     00:45:35.466    150 160 bytes   764 893 bytes   00:45:40.037
10              0:45:58.756     0:02:32.819     36 019 kbps     40 409 kbps     00:46:30.487    37 361 kbps     00:48:26.069    36 640 kbps     00:47:16.366    150 231 bytes   649 467 bytes   00:45:59.757
11              0:48:31.575     0:02:20.507     35 936 kbps     42 003 kbps     00:48:57.467    38 238 kbps     00:48:54.464    37 115 kbps     00:48:49.059    149 883 bytes   631 381 bytes   00:49:42.279
12              0:50:52.082     0:00:14.014     8 905 kbps      10 475 kbps     00:50:59.890    10 095 kbps     00:50:55.886    10 014 kbps     00:50:54.518    37 228 bytes    101 117 bytes   00:51:00.090
STREAM DIAGNOSTICS:
File            PID             Type            Codec           Language                Seconds                 Bitrate                 Bytes           Packets
----            ---             ----            -----           --------                --------------          --------------          -------------   -----
00003.M2TS      4113 (0x1011)   0x1B            AVC                                     3052,082                35 999                  13 734 123 886  74 695 933
00003.M2TS      4352 (0x1100)   0x80            LPCM            eng (English)           3052,082                2 310                   881 442 148     4 883 336
00003.M2TS      4353 (0x1101)   0x80            LPCM            eng (English)           3052,082                6 918                   2 639 443 108   14 650 008
00004.M2TS      4113 (0x1011)   0x1B            AVC                                     14,014                  8 906                   15 600 995      84 981



Показать сообщения:    

Текущее время: 10-Дек 10:00

Часовой пояс: UTC + 3


Вы не можете начинать темы
Вы не можете отвечать на сообщения
Вы не можете редактировать свои сообщения
Вы не можете удалять свои сообщения
Вы не можете голосовать в опросах
Вы не можете прикреплять файлы к сообщениям
Вы не можете скачивать файлы