Людвиг Минкус - Баядерка (Рудольф Нуреев, Александр Тарта, Мишель Кеваль) / Ludwig Minkus - La Bayadere (Alexandre Tarta, Michel Queval) [1992, Ballet, DVDRip]


 

[Цитировать]

Людвиг Минкус - Баядерка
Ludwig Minkus - La Bayadere
Год выпуска: 1992
Лейбл: Bel Air, NVC Arts
Страна-производитель: Франция
Жанр: Ballet
Продолжительность: 02:13:17
Язык: Французский
Перевод: Не требуется
Балет и оркестр: Балет Парижской оперы, оркестр Колонна
Дирижер: Мишель Кеваль (Michel Queval)
Режиссер/Хореограф: Рудольф Нуреев, Александр Тарта
Исполнители:
Изабель Герин (Isabelle Guerin) - Никия, баядерка
Лоран Илер (Laurent Hilaire) - Солор, богатый и знаменитый кшатрия
Элизабет Платель (Elisabeth Platel) - Гамзатти, дочь Дугманта
Жан-Мари Дидье (Jean-Marie Didiere) - Дугманта, раджа Гольконда
Франсис Маловик (Francis Malovik) - Великий брамин

Описание: Тема самоотверженной всепоглощающей любви баядерки, любви - как высшем смысле жизни, принадлежит к популярным темам музыкального театра XIX века. Литературными источниками её служат драма индийского классика Калидасы «Шакунтала» и баллада Гёте «Бог и баядерка». Балет «Баядерка» интересен тем, что даёт представление об определённом типе спектаклей второй половины XIX века, об определённом типе зрелищности. Торжественные выходы жрецов, красочные шествия многочисленных участников празднеств, эффектный дивертисмент со знаменитым «индусским танцем» - всё это создает атмосферу действия и, как будто оттягивая драматургически важные моменты, на самом деле контрастно оттеняет и выгодно подаёт другие эпизоды, где главное - сосредоточенность на внутреннем мире героев, разработке психологических характеристик и нюансов. Сцена «Теней» до сих пор остаётся непревзойдённым шедевром по тонкости психологического проникновения в образ и богатству открываемого внутреннего мира. Эта сцена не знает себе равных в истории мирового балетного репертуара. Отсутствие внешних событий, сосредоточенность на раскрытии сложного духовного мира человека средствами музыкально-хореографической образности позволяет считать именно эту хореографическую композицию прообразом будущего «симфонического» балета - открытия XX века.

Сравнение релизов

Сравнительные скриншоты с раздачей: http://rutracker.org/forum/viewtopic.php?t=175929
Устранён интерлейс, сделан полный кроп, улучшена цветопередача, резкость изображения.
http://screenshotcomparison.com/comparison/75907
Исходный DVD: http://teatrix.ru/viewtopic.php?t=320
Качество видео: DVDRip
Формат/Контейнер: AVI
Видео кодек: XviD
Аудио кодек: AC3
Видео поток: MPEG-4 Visual, 1886 Кбит/сек, 704 x 400 (1.760), 25.000 fps, 0.27 bit/pixel
Аудио поток: AC-3, 448 Кбит/сек, 2 канала, 48,0 КГц

MediaInfo

бщее
Полное имя : Minkus-La.Bayadere.1992.DVDRip.avi
Формат : AVI
Формат/Информация : Audio Video Interleave
Профиль формата : OpenDML
Размер файла : 2,18 Гбайт
Продолжительность : 2 ч. 13 м.
Общий поток : 2346 Кбит/сек
Программа кодирования : VirtualDubMod 1.5.10.3 | www.virtualdub-fr.org || (build 2550/release)
Видео
Идентификатор : 0
Формат : MPEG-4 Visual
Профиль формата : Advanced Simple@L5
Параметр BVOP формата : 2
Параметр QPel формата : Нет
Параметр GMC формата : Без точки перехода
Параметр матрицы формата : Default (MPEG)
Режим смешивания : Сжатый битовый поток
Идентификатор кодека : XVID
Идентификатор кодека/Подсказка : XviD
Продолжительность : 2 ч. 13 м.
Битрейт : 1886 Кбит/сек
Ширина : 704 пикселя
Высота : 400 пикселей
Соотношение сторон : 16:9
Частота кадров : 25,000 кадров/сек
Цветовое пространство : YUV
Субдискретизация насыщенности : 4:2:0
Битовая глубина : 8 бит
Тип развёртки : Прогрессивная
Метод сжатия : С потерями
Бит/(Пиксели*Кадры) : 0.268
Размер потока : 1,76 Гбайт (80%)
Библиотека кодирования : XviD 1.2.1 (UTC 2008-12-04)
Аудио
Идентификатор : 1
Формат : AC-3
Формат/Информация : Audio Coding 3
Расширение режима : CM (complete main)
Идентификатор кодека : 2000
Продолжительность : 2 ч. 13 м.
Вид битрейта : Постоянный
Битрейт : 448 Кбит/сек
Каналы : 2 канала
Расположение каналов : Front: L R
Частота : 48,0 КГц
Битовая глубина : 16 бит
Метод сжатия : С потерями
Размер потока : 427 Мбайт (19%)
Выравнивание : Разделение по промежуткам
Продолжительность промежутка : 40 мс. (1,00 видеокадр)
Время предзагрузки промежутка : 500 мс.

Скриншоты




Показать сообщения:    

Текущее время: 11-Дек 05:22

Часовой пояс: UTC + 3


Вы не можете начинать темы
Вы не можете отвечать на сообщения
Вы не можете редактировать свои сообщения
Вы не можете удалять свои сообщения
Вы не можете голосовать в опросах
Вы не можете прикреплять файлы к сообщениям
Вы не можете скачивать файлы