Людвиг Минкус - Баядерка (Елена Мачерет, Вахтанг Чабукиани, Владимир Пономарёв, Виктор Широков, Габриэла Комлева) / Ludwig Minkus - La Bayadere [1977, Ballet, DVDRip]


 

[Цитировать]

Людвиг Минкус - Баядерка
Ludwig Minkus - La Bayadere

Год выпуска: 1977
Лейбл: Kultur
Страна-производитель: СССР
Жанр: Ballet
Продолжительность: 02:09:55
Язык: Английский (титры), русский (закадровый текст)
Перевод: Не требуется
Балет и оркестр: Ленинградского государственного академического театра оперы и балета имени С. М. Кирова
Дирижер: Виктор Широков
Режиссер/Хореограф: Елена Мачерет, Вахтанг Чабукиани
Исполнители:
Габриэла Комлева - Никия, баядерка
Реджеп Абдыев - Солор, богатый и знаменитый кшатрия
Татьяна Терехова - Гамзатти, дочь Дугманта
Юрий Потёмкин - Дугманта, раджа Гольконда
Геннадий Селюцкий - Великий брамин

Описание: «Баядерка» – один из выдающихся балетных спектаклей, завораживающий своим драматизмом и танцевальной насыщенностью. Премьера этого роскошного балетного спектакля в четырёх действиях, семи картинах и апофеозом состоялась в 1877 году и с восторгом была принята современниками. Каких только сценических красот и разнообразных танцев не придумал Петипа, ведь действие всё-таки происходит в Индии. Да и сюжет самый что ни на есть балетный, о любви баядерки Никии и воина Солора, предавшего возлюбленную и женившегося на нелюбимой, но зато дочери раджи – Гамзатти. Так что можно было дать волю своей балетмейстерской фантазии. И среди этих фантастических балетмейстерских откровений – акт «Теней», один из поэтичнейших в мировом балетном наследии. Когда высоко над сценой, словно возникая из воздуха, одна за другой появляются тридцать две танцовщицы-тени и в бесконечно повторяющемся движении арабеска постепенно заполняют сцену, сердце перехватывает от пронзительной грусти этого призрачно-лунного эпизода. В «Баядерке» выступали выдающиеся артисты, в партии Никии блистали Анна Павлова, Ольга Спесивцева, Наталья Дудинская, Марина Семёнова. В роли Солора потрясал своим танцем Вахтанг Чабукиани. Особым балетом стала «Баядерка» для Рудольфа Нуреева. В роли Солора он сначала поразил ленинградцев, потом парижан во время скандально знаменитых гастролей Кировского театра в Париже в 1961 году, когда молодой советский танцовщик стал первым балетным «невозвращенцем»... «Баядерка», по-прежнему принадлежит к числу любимых спектаклей у постановщиков и исполнителей. Он по-прежнему притягивает и волнует зрителей эмоциональностью музыки, драматизмом сюжета и красотой хореографии.
Исходный DVD: http://teatrix.ru/viewtopic.php?t=1936
Качество видео: DVDRip
Формат/Контейнер: AVI
Видео кодек: XviD
Аудио кодек: AC3
Видео поток: MPEG-4 Visual, 1333 Кбит/сек, 704 x 528 (1.333), 29.970 fps, 0.12 bit/pixel
Аудио поток: AC-3, 256 Кбит/сек, 2 канала, 48,0 КГц

MediaInfo

Общее
Полное имя : Minkus-La.Bayadere.1977.DVDRip.avi
Формат : AVI
Формат/Информация : Audio Video Interleave
Размер файла : 1,45 Гбайт
Продолжительность : 2 ч. 9 м.
Общий поток : 1601 Кбит/сек
Программа кодирования : VirtualDubMod 1.5.10.2 (build 2540/release)
Библиотека кодирования : VirtualDubMod build 2540/release
Видео
Идентификатор : 0
Формат : MPEG-4 Visual
Профиль формата : Advanced Simple@L5
Параметр BVOP формата : 2
Параметр QPel формата : Нет
Параметр GMC формата : Без точки перехода
Параметр матрицы формата : Default (MPEG)
Режим смешивания : Сжатый битовый поток
Идентификатор кодека : XVID
Идентификатор кодека/Подсказка : XviD
Продолжительность : 2 ч. 9 м.
Битрейт : 1333 Кбит/сек
Ширина : 704 пикселя
Высота : 528 пикселей
Соотношение сторон : 4:3
Частота кадров : 29,970 кадров/сек
Цветовое пространство : YUV
Субдискретизация насыщенности : 4:2:0
Битовая глубина : 8 бит
Тип развёртки : Прогрессивная
Метод сжатия : С потерями
Бит/(Пиксели*Кадры) : 0.120
Размер потока : 1,21 Гбайт (83%)
Библиотека кодирования : XviD 1.2.1 (UTC 2008-12-04)
Аудио
Идентификатор : 1
Формат : AC-3
Формат/Информация : Audio Coding 3
Расширение режима : CM (complete main)
Идентификатор кодека : 2000
Продолжительность : 2 ч. 9 м.
Вид битрейта : Постоянный
Битрейт : 256 Кбит/сек
Каналы : 2 канала
Расположение каналов : Front: L R
Частота : 48,0 КГц
Битовая глубина : 16 бит
Метод сжатия : С потерями
Размер потока : 238 Мбайт (16%)
Выравнивание : Разделение по промежуткам
Продолжительность промежутка : 33 мс. (1,00 видеокадр)
Время предзагрузки промежутка : 500 мс.

Скриншоты




Показать сообщения:    

Текущее время: 06-Дек 15:14

Часовой пояс: UTC + 3


Вы не можете начинать темы
Вы не можете отвечать на сообщения
Вы не можете редактировать свои сообщения
Вы не можете удалять свои сообщения
Вы не можете голосовать в опросах
Вы не можете прикреплять файлы к сообщениям
Вы не можете скачивать файлы