Сергей Прокофьев - Золушка. Балет Маги Марен (Маги Марен, Манс Ройтерсверд, Яков Крейцберг) / Cinderella. A Ballet by Maguy Marin (Mans Reutersward) [1989, Ballet, DVDRip]


 

[Цитировать]

Золушка. Балет Маги Марен
Cinderella. A Ballet by Maguy Marin
Год выпуска: 1989
Лейбл: SVT1 Drama, RM Arts
Страна-производитель: Франция
Жанр: Ballet
Продолжительность: 01:27:19
Язык: Английский
Перевод: Не требуется
Субтитры: Нет
Балет и оркестр: Лионской национальной оперы
Дирижер: Яков Крейцберг
Режиссер/Хореограф: Маги Марен, Манс Ройтерсверд
Исполнители:
Золушка - Франсуаза Жюлли (Francoise Joullie)
Мачеха - Доминик Лэн (Dominique Laine)
Дочери мачехи - Джейн Плестед (Jayne Plaisted), Даниэль Патер (Daniele Pater)
Отец - Патрик Аззопарди (Patrick Azzopardi)
Крёстная космической эры - Натали Делассис (Nathalie Delassis)
Принц - Бернар Кашар (Bernard Cauchard)
Дама на балу - Валери Лаконьята (Valerie Lacognata)

Описание: Интерпретация музыки Прокофьева в «Золушке» Маги Марэн отличается оригинальной концепцией - на сцене возникает кукольный мир, где персонажи танцуют в целлулоидных масках. Постановка настолько изобретательна и продуманна, что просто невозможно сказать «артисты изображают кукол». Они действительно становятся куклами, сохраняющими при этом все добрые и недобрые человеческие чувства. Вы вольны «впасть в детство» и, словно в первый раз, восстановив всю свежесть восприятия ребенка, «прослушать» эту волшебную сказку. Или, напротив, вдруг обнаружить в ней глубинный философский смысл. Образ страдающей и мятущейся в поисках счастья кукольной души - сильный образ. Спектакль имеет постоянный успех в мире с момента премьеры в 1985 г. Относительно молодая труппа Национальной Лионской оперы из Франции (создана в 1969 г.) имеет высокую репутацию благодаря художественной политике руководителя Йоргана Лукоса, приглашающего на постановки ведущих хореографов мира. Сегодня Лионский балет лидирует среди театральных коллективов Франции по числу зарубежных гастролей.
Качество видео: DVDRip
Формат/Контейнер: AVI
Видео кодек: XviD
Аудио кодек: AC3
Видео поток: MPEG-4 Visual, 1395 Кбит/сек, 704 x 528 (1.333), 25.000 fps, 0.15 bit/pixel
Аудио поток: AC-3, 384 Кбит/сек, 2 канала, 48,0 КГц

MediaInfo

Общее
Полное имя : Cinderella.Maguy.Marin.1989.DVDRip.avi
Формат : AVI
Формат/Информация : Audio Video Interleave
Размер файла : 1,09 Гбайт
Продолжительность : 1 ч. 27 м.
Общий поток : 1788 Кбит/сек
Программа кодирования : VirtualDubMod 1.5.10.2 (build 2540/release)
Видео
Идентификатор : 0
Формат : MPEG-4 Visual
Профиль формата : Advanced Simple@L5
Параметр BVOP формата : 2
Параметр QPel формата : Нет
Параметр GMC формата : Без точки перехода
Параметр матрицы формата : Default (MPEG)
Режим смешивания : Сжатый битовый поток
Идентификатор кодека : XVID
Идентификатор кодека/Подсказка : XviD
Продолжительность : 1 ч. 27 м.
Битрейт : 1395 Кбит/сек
Ширина : 704 пикс.
Высота : 528 пикс.
Соотношение сторон : 4:3
Частота кадров : 25,000 кадр/сек
Цветовое пространство : YUV
Подвыборка цветности : 4:2:0
Битовая глубина : 8 бит
Тип развёртки : Прогрессивная
Метод сжатия : С потерями
Бит/(Пиксели*Кадры) : 0.150
Размер потока : 871 Мбайт (78%)
Библиотека кодирования : XviD 1.2.1 (UTC 2008-12-04)
Аудио
Идентификатор : 1
Формат : AC-3
Формат/Информация : Audio Coding 3
Расширение режима : CM (complete main)
Идентификатор кодека : 2000
Продолжительность : 1 ч. 27 м.
Вид битрейта : Постоянный
Битрейт : 384 Кбит/сек
Каналы : 2 канала
Расположение каналов : Front: L R
Частота : 48,0 КГц
Битовая глубина : 16 бит
Метод сжатия : С потерями
Размер потока : 240 Мбайт (21%)
Выравнивание : Разделение по промежуткам
Продолжительность промежутка : 40 мс. (1,00 видеокадр)
Время предзагрузки промежутка : 500 ms

Скриншоты




Показать сообщения:    

Текущее время: 05-Дек 01:22

Часовой пояс: UTC + 3


Вы не можете начинать темы
Вы не можете отвечать на сообщения
Вы не можете редактировать свои сообщения
Вы не можете удалять свои сообщения
Вы не можете голосовать в опросах
Вы не можете прикреплять файлы к сообщениям
Вы не можете скачивать файлы