Кармен на льду (Бизе, Миллингтон, Мерсер, Шепард, Печерский) / Carmen on Ice (Bizet, Millington, Mercer, Shepherd) [2008 г., Балет на льду, SATRip]


 

[Цитировать]

Кармен на льду
Carmen on Ice
Год выпуска: 2008
Жанр: Балет на льду
Язык: Английский
Перевод: Не требуется
Продолжительность: 01:41:58
Музыка: Жорж Бизе, Стивен Миллингтон
Режиссер/Хореограф: Тони Мерсер (Tony Mercer), Найджел Шепард (Nigel Shepherd) / Валерий Печерский
Исполнители:
Кармен - Ольга Першанкова
Дон Хозе - Владимир Котин
Эскамильо - Алексей Кильяков
Микаэла - Мария Орлова
Эль Данкайро - Александр Устинов
Цунига - Василий Благов
Моралес - Александр Тарасов
Фраскита - Лилия Быстрова
Мерседес - Людмила Коблова
Карлос - Алексей Сидеров
Бунига - Андрей Банников

Описание: Кармен – одна из самых ярких сценических героинь, олицетворение страстного темперамента, женской неотразимости, независимости. Эта Кармен мало напоминает свой литературный прототип. Жорж Бизе устранил её хитрость, вороватость, всё мелкое, обыденное, что «снижало» этот персонаж Мериме. Кроме того, в трактовке Бизе Кармен приобрела черты трагического величия: своё право на свободу любви она доказывает ценой собственной жизни. Нетрудно понять, в чём причина такой популярности Кармен у зрителей. Музыка произведения полна великолепных мелодий и необычайно драматична. Она так блестяща и ясна. К тому же все эти её характерные особенности выявлены уже в увертюре. Она начинается ярко и чисто — словно солнечный день в Испании. Далее звучит знаменитая мелодия куплетов тореадора, и наконец она неожиданно становится драматичной — в тот момент, когда в музыке слышится тема судьбы, та самая тема, которая характеризует Кармен и её неистовую любовь... «Кармен на льду» - великолепное ледовое шоу по мотивам новеллы Проспера Мериме, на музыку Бизе, в котором участвуют звёзды мирового класса и известные фигуристы.
Запись спектакля в Театре Мэйфлауэр, Великобритания, в 2008 году.
Качество: SATRip
Формат: AVI
Видео кодек: XviD
Аудио кодек: AC3
Видео: MPEG-4 Visual, 1576 Кбит/сек, 704 x 400 (1.760), 23.976 fps, 0.23 bit/pixel
Аудио: AC-3, 448 Кбит/сек, 2 канала, 48,0 КГц

MediaInfo

Общее
Полное имя : Carmen.on.Ice.2008.SATRip.avi
Формат : AVI
Формат/Информация : Audio Video Interleave
Размер файла : 1,45 Гбайт
Продолжительность : 1 ч. 41 м.
Общий поток : 2033 Кбит/сек
Программа кодирования : VirtualDubMod 1.5.10.2 (build 2540/release)
Видео
Идентификатор : 0
Формат : MPEG-4 Visual
Профиль формата : Advanced Simple@L5
Параметр BVOP формата : 2
Параметр QPel формата : Нет
Параметр GMC формата : Без точки перехода
Параметр матрицы формата : Default (MPEG)
Режим смешивания : Сжатый битовый поток
Идентификатор кодека : XVID
Идентификатор кодека/Подсказка : XviD
Продолжительность : 1 ч. 41 м.
Битрейт : 1576 Кбит/сек
Ширина : 704 пикс.
Высота : 400 пикс.
Соотношение сторон : 16:9
Частота кадров : 23,976 кадр/сек
Цветовое пространство : YUV
Подвыборка цветности : 4:2:0
Битовая глубина : 8 бит
Тип развёртки : Прогрессивная
Метод сжатия : С потерями
Бит/(Пиксели*Кадры) : 0.233
Размер потока : 1,12 Гбайт (78%)
Библиотека кодирования : XviD 1.2.1 (UTC 2008-12-04)
Аудио
Идентификатор : 1
Формат : AC-3
Формат/Информация : Audio Coding 3
Расширение режима : CM (complete main)
Идентификатор кодека : 2000
Продолжительность : 1 ч. 41 м.
Вид битрейта : Постоянный
Битрейт : 448 Кбит/сек
Каналы : 2 канала
Расположение каналов : Front: L R
Частота : 48,0 КГц
Битовая глубина : 16 бит
Метод сжатия : С потерями
Размер потока : 327 Мбайт (22%)
Выравнивание : Разделение по промежуткам
Продолжительность промежутка : 42 мс. (1,00 видеокадр)
Время предзагрузки промежутка : 500 ms

Скриншоты




Показать сообщения:    

Текущее время: 07-Дек 19:27

Часовой пояс: UTC + 3


Вы не можете начинать темы
Вы не можете отвечать на сообщения
Вы не можете редактировать свои сообщения
Вы не можете удалять свои сообщения
Вы не можете голосовать в опросах
Вы не можете прикреплять файлы к сообщениям
Вы не можете скачивать файлы