Жозеф Косма - Рандеву (Ролан Пети) / Joseph Kosma - Le Rendez-vous - Roland Petit (Isabelle Ciaravola, Nicolas Le Riche, Michael Denard, Hugo Vigliotti, Pascal Aubin [2010, Ballet, HDTVRip]


 

[Цитировать]

Рандеву / Le Rendez-vous
Год выпуска: 2010
Страна-производитель: Франция
Жанр: Ballet
Продолжительность: 00:27:14
Язык: французский
Перевод: не требуется
Субтитры: нет
Музыка: Жозеф Косма / Joseph Kosma
Режиссер/Хореограф: Ролан Пети / Roland Petit
Исполнители музыки: Orchestre Colonne
Дирижер: Yannis Pouspourikas
Исполнители:
La Plus Belle Fille Du Monde - Isabelle Ciaravola,
Le Jeune Homme - Nicolas Le Riche,
Le Destin - Michael Denard,
Le Bossu - Hugo Vigliotti,
Le Chanteur - Pascal Aubin
Описание: Балет Ролана Пети, впервые поставленный им в 1945 году.
Доп. информация:
Либретто: Жак Превер
Сценический занавес: Пабло Пикассо
Декорации Брассё
Костюмы: Мейо
Запись с канала MEZZO.
Сэмпл: http://multi-up.com/524699
Качество видео: HDTVRip
Формат/Контейнер: AVI
Видео кодек: XviD
Аудио кодек: MP3
Видео поток: Xvid 720x416 25.00fps 1471kbps
Аудио поток: MPEG Audio Layer 3 48000Hz stereo 256kbps

Mediainfo

Format : AVI
Format/Info : Audio Video Interleave
File size : 338 MiB
Duration : 27mn 14s
Overall bit rate : 1 735 Kbps
Writing application : VirtualDubMod 1.5.4.1 (build 2178/release)
Writing library : VirtualDubMod build 2178/release
Video
ID : 0
Format : MPEG-4 Visual
Format profile : Advanced Simple@L5
Format settings, BVOP : Yes
Format settings, QPel : No
Format settings, GMC : No warppoints
Format settings, Matrix : Custom
Codec ID : XVID
Codec ID/Hint : XviD
Duration : 27mn 14s
Bit rate : 1 472 Kbps
Width : 720 pixels
Height : 416 pixels
Display aspect ratio : 16:9
Frame rate : 25.000 fps
Color space : YUV
Chroma subsampling : 4:2:0
Bit depth : 8 bits
Scan type : Progressive
Bits/(Pixel*Frame) : 0.197
Stream size : 287 MiB (85%)
Writing library : XviD 1.2.0.dev47 (UTC 2006-11-01)
Audio
ID : 1
Format : MPEG Audio
Format version : Version 1
Format profile : Layer 3
Mode : Joint stereo
Codec ID : 55
Codec ID/Hint : MP3
Duration : 27mn 14s
Bit rate mode : Constant
Bit rate : 256 Kbps
Channel(s) : 2 channels
Sampling rate : 48.0 KHz
Stream size : 49.9 MiB (15%)
Alignment : Aligned on interleaves
Interleave, duration : 80 ms (2.00 video frames)
Interleave, preload duration : 504 ms

Скриншоты




Показать сообщения:    

Текущее время: 09-Дек 06:53

Часовой пояс: UTC + 3


Вы не можете начинать темы
Вы не можете отвечать на сообщения
Вы не можете редактировать свои сообщения
Вы не можете удалять свои сообщения
Вы не можете голосовать в опросах
Вы не можете прикреплять файлы к сообщениям
Вы не можете скачивать файлы