Зажигая паркет / Burn the Floor (David Mallet, Anthony Van Laast) [1999, Social dance, Concert dance, DVDRip]


 

[Цитировать]

Зажигая паркет
Burn the Floor
Год выпуска: 1999
Лейбл: Vision Video, Universal
Страна-производитель: США
Жанр: Social dance, Concert dance
Продолжительность: 01:36:29
Язык: Английский
Перевод: Не требуется
Субтитры: Нет
Режиссер/Хореограф: Дэвид Маллет (David Mallet) / Энтони Ван Лааст (Anthony Van Laast)
Описание: Этот фильм - мировая премьера с участием 44-х всемирно известных звезд европейских и латино-американских танцев. Burn the Floor - танцевальная сенсация, потрясшая мир. Взрывное путешествие сквозь танец пронесет Вас от элегантности и красоты вальса, эмоции и страсти "Passionata" до модных, сексуальных, современных ритмов с финалом "Woud You Like To Dance With Me?" ("Не хотел бы ты со мной потанцевать?"). Burn the Floor получил огромные овации и шумные рецензии по всему миру за свое волнение, энергию, умение и страсть. Шоу поднимает бальные танцы на новую высоту, создавая грандиозное танцевальное зрелище нового тысячелетия.
Burn the Floor, 2007: http://teatrix.ru/viewtopic.php?t=3452

Исполнители

Matthew Cutler ... Principal Latin Dancer
Nicole Cutler ... Latin Dancer
Rebecca De Roche ... Dancer
Jason Gilkison ... Blond Spanish Gentleman / other roles
Tonia Kosovic ... Urban Heat lead dancer / other roles
Fergus Logan ... Master of Ceremonies
Peta Roby ... Spanish Temptress / other roles

Сравнение

Сравнение с релизом: http://rutracker.org/forum/viewtopic.php?t=586076
Многоканальный звук, видео 704х400, полный кроп.
Качество видео: DVDRip
Формат/Контейнер: AVI
Видео кодек: XviD
Аудио кодек: AC3
Видео поток: MPEG-4 Visual, 1690 Кбит/сек, 704 x 400 (1.760), 29.970 fps, 0.20 bit/pixel
Аудио поток: AC-3, 448 Кбит/сек, 6 каналов, 48,0 КГц

MediaInfo

Общее
Полное имя : Burn.The.Floor.1999.DVDRip.avi
Формат : AVI
Формат/Информация : Audio Video Interleave
Размер файла : 1,45 Гбайт
Продолжительность : 1 ч. 36 м.
Общий поток : 2149 Кбит/сек
Программа кодирования : VirtualDubMod 1.5.10.2 (build 2540/release)
Библиотека кодирования : VirtualDubMod build 2540/release
Видео
Идентификатор : 0
Формат : MPEG-4 Visual
Профиль формата : Advanced Simple@L5
Параметр BVOP формата : 2
Параметр QPel формата : Нет
Параметр GMC формата : Без точки перехода
Параметр матрицы формата : Default (MPEG)
Режим смешивания : Сжатый битовый поток
Идентификатор кодека : XVID
Идентификатор кодека/Подсказка : XviD
Продолжительность : 1 ч. 36 м.
Битрейт : 1690 Кбит/сек
Ширина : 704 пикс.
Высота : 400 пикс.
Соотношение сторон : 16:9
Частота кадров : 29,970 кадр/сек
Цветовое пространство : YUV
Подвыборка цветности : 4:2:0
Битовая глубина : 8 бит
Тип развёртки : Прогрессивная
Метод сжатия : С потерями
Бит/(Пиксели*Кадры) : 0.200
Размер потока : 1,14 Гбайт (79%)
Библиотека кодирования : XviD 1.2.1 (UTC 2008-12-04)
Аудио
Идентификатор : 1
Формат : AC-3
Формат/Информация : Audio Coding 3
Расширение режима : CM (complete main)
Идентификатор кодека : 2000
Продолжительность : 1 ч. 36 м.
Вид битрейта : Постоянный
Битрейт : 448 Кбит/сек
Каналы : 6 каналов
Расположение каналов : Front: L C R, Side: L R, LFE
Частота : 48,0 КГц
Битовая глубина : 16 бит
Метод сжатия : С потерями
Размер потока : 309 Мбайт (21%)
Выравнивание : Соединение по промежуткам
Продолжительность промежутка : 33 мс. (1,00 видеокадр)
Время предзагрузки промежутка : 512 ms

Скриншоты




Показать сообщения:    

Текущее время: 02-Дек 23:11

Часовой пояс: UTC + 3


Вы не можете начинать темы
Вы не можете отвечать на сообщения
Вы не можете редактировать свои сообщения
Вы не можете удалять свои сообщения
Вы не можете голосовать в опросах
Вы не можете прикреплять файлы к сообщениям
Вы не можете скачивать файлы