Зажигая паркет / Burn the Floor (Jason Gilkison, Simon Francis) [2007, Social dance, Concert dance, DVDRip]


 

[Цитировать]

Зажигая паркет
Burn the Floor
Год выпуска: 2007
Лейбл: Kultur
Страна-производитель: Австралия
Жанр: Social dance, Concert dance
Продолжительность: 01:29:21
Язык: Английский
Перевод: Не требуется
Субтитры: Нет
Режиссер/Хореограф: Джейсон Гилкисон (Jason Gilkison) / Саймон Фрэнсис (Simon Francis)
Описание: Burn the Floor - танцевальная сенсация, потрясшая мир.
Мировая Премьера с участием всемирно известных звезд европейских и латино-американских танцев. Отличное яркое шоу с участием мировых звезд танцевального мира. Великолепное зрелище и просто очумительно восхитительная живая музыка...

Burn the Floor, 1999: http://teatrix.ru/viewtopic.php?t=3451

Исполнители

Jonathan Doone, Kym Johnson, Sonia Kruger, David Sugden, Rebecca Sugden, David Watson, Malin Watson, Trent Whiddon
Качество видео: DVDRip
Формат/Контейнер: AVI
Видео кодек: XviD
Аудио кодек: AC3
Видео поток: MPEG-4 Visual, 1861 Кбит/сек, 704 x 400 (1.760), 29.970 fps, 0.22 bit/pixel
Аудио поток: AC-3, 448 Кбит/сек, 5 каналов, 48,0 КГц

MediaInfo

Общее
Полное имя : Burn.The.Floor.2007.DVDRip.avi
Формат : AVI
Формат/Информация : Audio Video Interleave
Размер файла : 1,45 Гбайт
Продолжительность : 1 ч. 29 м.
Общий поток : 2320 Кбит/сек
Программа кодирования : VirtualDubMod 1.5.10.2 (build 2540/release)
Видео
Идентификатор : 0
Формат : MPEG-4 Visual
Профиль формата : Advanced Simple@L5
Параметр BVOP формата : 2
Параметр QPel формата : Нет
Параметр GMC формата : Без точки перехода
Параметр матрицы формата : Default (MPEG)
Режим смешивания : Сжатый битовый поток
Идентификатор кодека : XVID
Идентификатор кодека/Подсказка : XviD
Продолжительность : 1 ч. 29 м.
Битрейт : 1861 Кбит/сек
Ширина : 704 пикс.
Высота : 400 пикс.
Соотношение сторон : 16:9
Частота кадров : 29,970 кадр/сек
Цветовое пространство : YUV
Подвыборка цветности : 4:2:0
Битовая глубина : 8 бит
Тип развёртки : Прогрессивная
Метод сжатия : С потерями
Бит/(Пиксели*Кадры) : 0.220
Размер потока : 1,16 Гбайт (80%)
Библиотека кодирования : XviD 1.2.1 (UTC 2008-12-04)
Аудио
Идентификатор : 1
Формат : AC-3
Формат/Информация : Audio Coding 3
Расширение режима : CM (complete main)
Идентификатор кодека : 2000
Продолжительность : 1 ч. 29 м.
Вид битрейта : Постоянный
Битрейт : 448 Кбит/сек
Каналы : 5 каналов
Расположение каналов : Front: L C R, Side: L R
Частота : 48,0 КГц
Битовая глубина : 16 бит
Метод сжатия : С потерями
Размер потока : 286 Мбайт (19%)
Выравнивание : Соединение по промежуткам
Продолжительность промежутка : 33 мс. (1,00 видеокадр)
Время предзагрузки промежутка : 512 ms

Скриншоты




Показать сообщения:    

Текущее время: 09-Дек 03:05

Часовой пояс: UTC + 3


Вы не можете начинать темы
Вы не можете отвечать на сообщения
Вы не можете редактировать свои сообщения
Вы не можете удалять свои сообщения
Вы не можете голосовать в опросах
Вы не можете прикреплять файлы к сообщениям
Вы не можете скачивать файлы