Морис Бежар - Вокруг света за 80 минут (Жиль Роман, Жилль Амаду) / Maurice Bejart - Le Tour du Monde en 80 minutes (Gil Roman, Gilles Amado) [2008, Modern Ballet, DVDRip]


 

[Цитировать]

Морис Бежар - Вокруг света за 80 минут
Maurice Bejart - Le Tour du Monde en 80 minutes
Год выпуска: 2008
Лейбл: Gerard Drouot Productions
Страна-производитель: Франция
Жанр: Modern Ballet
Продолжительность: 01:29:52
Язык: Французский
Перевод: Не требуется
Субтитры: Нет
Режиссер/Хореограф: Морис Бежар (Maurice Bejart), Жиль Роман (Gil Roman)
Режиссер видеозаписи:Жилль Амаду (Gilles Amado)
Исполнители: Балет Мориса Бежара
Содержание: сенегальская, индийская, корейская, андийская, тайская, бразильская традиционная музыка.
Стравинский, Штраус, Моцарт, Вагнер, Ли Барс, Ум Кальсум, Теодоракис, Хаджидакис, Вивальди, Чайковский, Эллингтон.
Описание: Бежар балет Лозанна (Bejart Ballet Lausanne). Знаменитая труппа, основанная Морисом Бежаром 20 лет назад, представила последнее путешествие мэтра. Календарь выступлений с этим спектаклем расписан на несколько лет вперед.
Это 80 минут восторга. Сенегал, Сахара, Греция, Индия, Бразилия... Почти до самой смерти маэстро приезжал на репетиции балета. В ночь с 21-го на 22-ое ноября восьмидесяти лет от роду скончался великий хореограф ХХ1-го века. Артисты пообещали, что запланированная премьера обязательно состоится. Жиль Роман, художественный руководитель "Бежар балет Лозанна": "Для меня это стало путешествием через все его творчество, все его шедевры". Так заканчивается великая эпоха в истории балетного мира – балет ХХ века.

" ...Цифра 80 крутилась все время вокруг: то ли 80 дней, 80 минут или 80 лет. Совсем недавно мы справляли 80-летие Бежара, и был спектакль, который назывался «Катр Ван», 4 раза по 20. Идея 80 минут, очевидно, крутилась у него в голове. А то, что это вокруг света, так это не в первый раз, когда он обращается к танцам народов мира." - Азарий Плисецкий.
Качество видео: DVDRip
Формат/Контейнер: AVI
Видео кодек: XviD
Аудио кодек: AC3
Видео поток: MPEG-4 Visual, 1776 Кбит/сек, 704 x 400 (1.760), 25.000 fps, 0.25 bit/pixel
Аудио поток: AC-3, 384 Кбит/сек, 2 канала, 48,0 КГц

MediaInfo

Общее
Полное имя : Le.Tour.du.Monde.en.80.minutes.2008.DVDRip.avi
Формат : AVI
Формат/Информация : Audio Video Interleave
Размер файла : 1,36 Гбайт
Продолжительность : 1 ч. 29 м.
Общий поток : 2169 Кбит/сек
Название фильма : Maurice Bejart - Le Tour du monde en 80 minutes
Режиссёр : Rip by MC
Жанр : Modern Ballet
Программа кодирования : VirtualDubMod 1.5.10.2 (build 2540/release)
Формат оригинала/Имя : Music Video
Примечание : www.rutracker.org
Видео
Идентификатор : 0
Формат : MPEG-4 Visual
Профиль формата : Advanced Simple@L5
Параметр BVOP формата : 2
Параметр QPel формата : Нет
Параметр GMC формата : Без точки перехода
Параметр матрицы формата : Default (MPEG)
Режим смешивания : Сжатый битовый поток
Идентификатор кодека : XVID
Идентификатор кодека/Подсказка : XviD
Продолжительность : 1 ч. 29 м.
Битрейт : 1776 Кбит/сек
Ширина : 704 пикс.
Высота : 400 пикс.
Соотношение сторон : 16:9
Частота кадров : 25,000 кадр/сек
Цветовое пространство : YUV
Подвыборка цветности : 4:2:0
Битовая глубина : 8 бит
Тип развёртки : Прогрессивная
Метод сжатия : С потерями
Бит/(Пиксели*Кадры) : 0.252
Размер потока : 1,11 Гбайт (82%)
Библиотека кодирования : XviD 1.2.1 (UTC 2008-12-04)
Аудио
Идентификатор : 1
Формат : AC-3
Формат/Информация : Audio Coding 3
Расширение режима : CM (complete main)
Идентификатор кодека : 2000
Продолжительность : 1 ч. 29 м.
Вид битрейта : Постоянный
Битрейт : 384 Кбит/сек
Каналы : 2 канала
Расположение каналов : Front: L R
Частота : 48,0 КГц
Битовая глубина : 16 бит
Метод сжатия : С потерями
Размер потока : 247 Мбайт (18%)
Выравнивание : Соединение по промежуткам
Продолжительность промежутка : 40 мс. (1,00 видеокадр)
Время предзагрузки промежутка : 512 ms

Скриншоты




Показать сообщения:    

Текущее время: 03-Дек 05:28

Часовой пояс: UTC + 3


Вы не можете начинать темы
Вы не можете отвечать на сообщения
Вы не можете редактировать свои сообщения
Вы не можете удалять свои сообщения
Вы не можете голосовать в опросах
Вы не можете прикреплять файлы к сообщениям
Вы не можете скачивать файлы