Дени Левайан - Маленькая танцовщица Дега - Патрис Барт / Denis Levaillant - La petite danseuse de Degas - Patrice Bart (Clairemarie Osta, Dorothee Gilbert, Mathieu Ganio, Jose Martinez)[2010, Ballet, HDTVRip]


 

[Цитировать]

Маленькая танцовщица Дега / La petite danseuse de Degas
Год выпуска: 2010
Страна-производитель: Франция
Жанр: Ballet
Продолжительность: 01:50:49
Перевод: не требуется
Субтитры: нет
Музыка: Дени Левайан / Denis Levaillant
Исполнители музыки: Оркестр Национальной парижской оперы
Дирижер: Koen Kessels
Режиссер/Хореограф: Патрис Барт / Patrice Bart
Исполнители:
La Petite Danseuse - Clairemarie Osta
L`etoile - Dorothee Gilbert
Le Maitre de Ballet - Mathieu Ganio
L`Abonne - Jose Martinez
L`Homme en noir - Benjamin Pech
Le Mere - Elisabeth Maurin
Описание:
Балет рассказывает о судьбе девушки из бедного квартала Парижа.
Эта грустная история, в которой сплетаются эпизоды тюремного быта, атмосфера сплетен, зависти, предательства.
«Патрис Барт использовал классическую лексику, придав ей современную нюансировку. Это внесло свежесть в спектакль, решенный в традиционной балетной форме. Главная же удача Барта состоит в том, что его хореография дышит живописью Дега, особенно в картинах танцевального класса и бала в Парижской опере».
Доп. информация:
Запись с канала MEZZO.
Сэмпл: http://multi-up.com/516253
Качество видео: HDTVRip
Формат/Контейнер: AVI
Видео кодек: XviD
Аудио кодек: MP3
Видео поток: Xvid 720x416 25.00fps 1820kbps
Аудио поток: MPEG Audio Layer 3 48000Hz stereo 256kbps

Mediainfo

Format : AVI
Format/Info : Audio Video Interleave
File size : 1.61 GiB
Duration : 1h 50mn
Overall bit rate : 2 083 Kbps
Writing application : VirtualDubMod 1.5.4.1 (build 2178/release)
Writing library : VirtualDubMod build 2178/release
Video
ID : 0
Format : MPEG-4 Visual
Format profile : Advanced Simple@L5
Format settings, BVOP : Yes
Format settings, QPel : No
Format settings, GMC : No warppoints
Format settings, Matrix : Custom
Codec ID : XVID
Codec ID/Hint : XviD
Duration : 1h 50mn
Bit rate : 1 820 Kbps
Width : 720 pixels
Height : 416 pixels
Display aspect ratio : 16:9
Frame rate : 25.000 fps
Color space : YUV
Chroma subsampling : 4:2:0
Bit depth : 8 bits
Scan type : Progressive
Bits/(Pixel*Frame) : 0.243
Stream size : 1.41 GiB (87%)
Writing library : XviD 1.1.2 (UTC 2006-11-01)
Audio
ID : 1
Format : MPEG Audio
Format version : Version 1
Format profile : Layer 3
Mode : Joint stereo
Codec ID : 55
Codec ID/Hint : MP3
Duration : 1h 50mn
Bit rate mode : Constant
Bit rate : 256 Kbps
Channel(s) : 2 channels
Sampling rate : 48.0 KHz
Stream size : 203 MiB (12%)
Alignment : Aligned on interleaves
Interleave, duration : 80 ms (2.00 video frames)

Скриншоты




Показать сообщения:    

Текущее время: 10-Дек 15:48

Часовой пояс: UTC + 3


Вы не можете начинать темы
Вы не можете отвечать на сообщения
Вы не можете редактировать свои сообщения
Вы не можете удалять свои сообщения
Вы не можете голосовать в опросах
Вы не можете прикреплять файлы к сообщениям
Вы не можете скачивать файлы