Раста Томас, Адриенн Кантерна-Томас - Рок балет / Rasta Thomas, Adrienne Canterna-Thomas - Rock the Ballet [2010, Ballet, modern dance, SATRip]


 

[Цитировать]

Раста Томас - Рок балет / Rasta Thomas - Rock the Ballet
Год выпуска: 2010
Страна-производитель: Германия
Жанр: Ballet, modern dance
Продолжительность: 01:09:49
Перевод: не требуется
Субтитры: нет
Режиссер/Хореограф: Раста Томас, Адриенн Кантерна-Томас / Rasta Thomas, Adrienne Canterna-Thomas
Исполнители:
Adrienne Canterna-Thomas,
Rasta Thomas,
Robbie Nicholson,
Michael Keefe,
Anthony Colantone,
Chris McCarthy,
Alexei Geronimo
Музыка: Использованы фонограммы - Clint Mansell, Coldplay, Dave Mathews Band, Jacgues Brel, Journey, Lenny Kravitz, Maria Callas, Michael Jackson, Prince, Queen, The Black Eyed Peas, U2.
Описание: Если вы любите балет, танцы, театр, то не пропустите это грандиозное и единственное в своем роде шоу. Во время этого динамичного спектакля вам предстоит увидеть танец во всем его многообразии - от классического балета до авангардных постановок, исполняемых под музыку групп Queen, U2, под песни Фрэнка Синатры, Джеймса Брауна, Майкла Джексона, Ленни Кравица, под джаз и классику, хип-хоп и степ.
В представлении участвуют шестеро танцоров и одна танцовщица. Несмотря на юный возраст, им уже довелось поработать в известных бродвейских и голливудских шоу. На языке тела они рассказывают маленькие истории из жизни, выражают эмоции и даже шутят. Художественный руководитель и инициатор проекта - американский известный танцор и хореограф Раста Томас.
Доп. информация: Спектакль записан в Aus der Alten Oper Frankfurt.
Запись с канала ZDF
Сэмпл: http://multi-up.com/514666
Качество видео: SATRip
Формат/Контейнер: AVI
Видео кодек: DivX
Аудио кодек: MP3
Видео поток: DivX 5 720x400 25.00fps 1300kbps
Аудио поток: MPEG Audio Layer 3 48000Hz stereo 256kbps

Mediainfo

Format : AVI
Format/Info : Audio Video Interleave
File size : 782 MiB
Duration : 1h 9mn
Overall bit rate : 1 566 Kbps
Writing application : VirtualDubModRus 1.5.10.2 (build 2542/release)
Writing library : VirtualDubMod build 2542/release
Video
ID : 0
Format : MPEG-4 Visual
Format settings, BVOP : Yes
Format settings, QPel : No
Format settings, GMC : No warppoints
Format settings, Matrix : Default (H.263)
Muxing mode : Packed bitstream
Codec ID : DX50
Codec ID/Hint : DivX 5
Duration : 1h 9mn
Bit rate : 1 300 Kbps
Width : 720 pixels
Height : 400 pixels
Display aspect ratio : 16:9
Frame rate : 25.000 fps
Color space : YUV
Chroma subsampling : 4:2:0
Bit depth : 8 bits
Scan type : Progressive
Bits/(Pixel*Frame) : 0.181
Stream size : 650 MiB (83%)
Writing library : DivX 5.2.1 Alpha (UTC 2004-09-08)
Audio
ID : 1
Format : MPEG Audio
Format version : Version 1
Format profile : Layer 3
Mode : Joint stereo
Codec ID : 55
Codec ID/Hint : MP3
Duration : 1h 9mn
Bit rate mode : Constant
Bit rate : 256 Kbps
Channel(s) : 2 channels
Sampling rate : 48.0 KHz
Stream size : 128 MiB (16%)
Alignment : Aligned on interleaves
Interleave, duration : 40 ms (1.00 video frame)
Interleave, preload duration : 504 ms

Скриншоты




Показать сообщения:    

Текущее время: 10-Дек 00:17

Часовой пояс: UTC + 3


Вы не можете начинать темы
Вы не можете отвечать на сообщения
Вы не можете редактировать свои сообщения
Вы не можете удалять свои сообщения
Вы не можете голосовать в опросах
Вы не можете прикреплять файлы к сообщениям
Вы не можете скачивать файлы