Carmen Flamenco - Ballet Teatro Espanol [2002, Ballet, Flamenco, 2xDVD5]


 

[Цитировать]

Carmen Flamenco - Ballet Teatro Espanol
Год выпуска: 2002
Жанр: Ballet, Flamenco
Продолжительность: 53 мин + 62 мин
Хореограф и режиссер: Rafael Aguilar
Исполнители:
Carmen - Helena Martin
Don Jose - Francisco Guerrero
Lucas, the Torero - Fernando Solano
Описание: Основатель Театра балета Испании и хореограф "Кармен" Рафаэль Агилар всю жизнь любил фламенко. И пугался его сущности, и разгадывал его парадоксы, пытался примирить с академической сценой, смешать с классическим балетом и танцем модерн. Но игрушечной Испании, к счастью, не получилось. Ведь Агилар и не пытался укротить стихию, и не сторонился вольницы андалузских цыган. Гитарная россыпь, треск кастаньет, птичий клекот, ворожба рук, каблуков, красное и черное. Полный набор настоящей Испании. Спектакль Агилара перенасыщен и действием, и персонажами. Кроме привычного четырехугольника Кармен–Хозе–тореро–Мануэла (Микаэла), кроме толпы солдат, цыганок, работниц табачной фабрики и контрабандистов есть еще разного рода мистические видения и даже Эротическая Тень Кармен. Конечно, при таком раскладе только музыкой Жоржа Бизе не обойтись. В дополнение к ней играют вариации Пабло де Сарасате, народную музыку, а также композиции Флавьо Переса и Лоренка Барбера, написанные специально к этому балету.
This is a live performance recorded on 7 September 2002 in the Staatsoper in Hamburg. It is the flamenco version by Rafael Aguilar's Ballet Teatro Espanol of the story of the Carmen of Merimee and of George Bizet's opera. It is a dramatic story that is laden with eroticism, in which the expressionism of modern ballet, flamenco and bolero come together, during the different scenes of the work. The extras include an interview with Carmen Salinas, the director of the ballet, on Rafael Aguilar.
Доп. информация: Диск мне достался уже в виде копии; по всей видимости, разделен с DVD-9. Меню отсутствует.
Да, и судя по английскому комментарию, в оригинале были также доп.материалы.
Сканами обложек не располагаю.
DVDrip имеется здесь
Качество видео: 2xDVD5
Формат: DVDVideo
Видео поток: MPEG2 720x576 25 fps
Аудио поток: PCM 48 kHz 2 ch / AC-3 48 kHz 6 ch / DTS 48 kHz 6 ch

Скриншоты

Mediainfo disk 1

General
Complete name : D:\Video\Carmen\disk1\VIDEO_TS\VIDEO_TS.BUP
Format : DVD Video
Format profile : Menu
File size : 6.00 KiB
Video
ID : 224 (0xE0)
Format : MPEG Video
Format version : Version 2
Bit rate mode : Variable
Width : 720 pixels
Height : 576 pixels
Display aspect ratio : 4:3
Frame rate : 25.000 fps
Standard : PAL
Compression mode : Lossy
General
Complete name : D:\Video\Carmen\disk1\VIDEO_TS\VIDEO_TS.IFO
Format : DVD Video
Format profile : Menu
File size : 6.00 KiB
Video
ID : 224 (0xE0)
Format : MPEG Video
Format version : Version 2
Bit rate mode : Variable
Width : 720 pixels
Height : 576 pixels
Display aspect ratio : 4:3
Frame rate : 25.000 fps
Standard : PAL
Compression mode : Lossy
General
Complete name : D:\Video\Carmen\disk1\VIDEO_TS\VTS_01_0.BUP
Format : DVD Video
Format profile : Program
File size : 44.0 KiB
Duration : 53mn 36s
Overall bit rate : 112 bps
Video
ID : 224 (0xE0)
Format : MPEG Video
Format version : Version 2
Duration : 53mn 36s
Bit rate mode : Variable
Width : 720 pixels
Height : 576 pixels
Display aspect ratio : 16:9
Frame rate : 25.000 fps
Standard : PAL
Compression mode : Lossy
Audio #1
ID : 0 (0x0)
Format : PCM
Duration : 53mn 36s
Channel(s) : 2 channels
Sampling rate : 48.0 KHz
Language : Spanish
Audio #2
ID : 129 (0x81)
Format : AC-3
Format/Info : Audio Coding 3
Duration : 53mn 36s
Channel(s) : 6 channels
Sampling rate : 48.0 KHz
Compression mode : Lossy
Language : Spanish
Audio #3
ID : 138 (0x8A)
Format : DTS
Format/Info : Digital Theater Systems
Duration : 53mn 36s
Channel(s) : 6 channels
Sampling rate : 48.0 KHz
Compression mode : Lossy
Language : Spanish
Menu
Duration : 53mn 36s
00:00:00.000 : Chapter 1
00:03:16.200 : Chapter 2
00:20:27.040 : Chapter 3
00:34:06.800 : Chapter 4
00:41:39.000 : Chapter 5
List (Audio) : 0 / 1 / 2
General
Complete name : D:\Video\Carmen\disk1\VIDEO_TS\VTS_01_0.IFO
Format : DVD Video
Format profile : Program
File size : 44.0 KiB
Duration : 53mn 36s
Overall bit rate : 112 bps
Video
ID : 224 (0xE0)
Format : MPEG Video
Format version : Version 2
Duration : 53mn 36s
Bit rate mode : Variable
Width : 720 pixels
Height : 576 pixels
Display aspect ratio : 16:9
Frame rate : 25.000 fps
Standard : PAL
Compression mode : Lossy
Audio #1
ID : 0 (0x0)
Format : PCM
Duration : 53mn 36s
Channel(s) : 2 channels
Sampling rate : 48.0 KHz
Language : Spanish
Audio #2
ID : 129 (0x81)
Format : AC-3
Format/Info : Audio Coding 3
Duration : 53mn 36s
Channel(s) : 6 channels
Sampling rate : 48.0 KHz
Compression mode : Lossy
Language : Spanish
Audio #3
ID : 138 (0x8A)
Format : DTS
Format/Info : Digital Theater Systems
Duration : 53mn 36s
Channel(s) : 6 channels
Sampling rate : 48.0 KHz
Compression mode : Lossy
Language : Spanish
Menu
Duration : 53mn 36s
00:00:00.000 : Chapter 1
00:03:16.200 : Chapter 2
00:20:27.040 : Chapter 3
00:34:06.800 : Chapter 4
00:41:39.000 : Chapter 5
List (Audio) : 0 / 1 / 2
General
Complete name : D:\Video\Carmen\disk1\VIDEO_TS\VTS_01_1.VOB
Format : MPEG-PS
File size : 1 024 MiB
Duration : 16mn 33s
Overall bit rate : 8 649 Kbps
Video
ID : 224 (0xE0)
Format : MPEG Video
Format version : Version 2
Format profile : Main@Main
Format settings, BVOP : Yes
Format settings, Matrix : Default
Duration : 16mn 33s
Bit rate mode : Variable
Bit rate : 5 739 Kbps
Nominal bit rate : 9 800 Kbps
Width : 720 pixels
Height : 576 pixels
Display aspect ratio : 16:9
Frame rate : 25.000 fps
Standard : PAL
Color space : YUV
Chroma subsampling : 4:2:0
Bit depth : 8 bits
Scan type : Interlaced
Scan order : Top Field First
Compression mode : Lossy
Bits/(Pixel*Frame) : 0.554
Stream size : 679 MiB (66%)
Audio #1
ID : 189 (0xBD)-129 (0x81)
Format : AC-3
Format/Info : Audio Coding 3
Mode extension : CM (complete main)
Muxing mode : DVD-Video
Duration : 16mn 32s
Bit rate mode : Constant
Bit rate : 448 Kbps
Channel(s) : 6 channels
Channel positions : Front: L C R, Side: L R, LFE
Sampling rate : 48.0 KHz
Bit depth : 16 bits
Compression mode : Lossy
Stream size : 53.0 MiB (5%)
Audio #2
ID : 189 (0xBD)-138 (0x8A)
Format : DTS
Format/Info : Digital Theater Systems
Muxing mode : DVD-Video
Duration : 16mn 32s
Bit rate mode : Constant
Bit rate : 755 Kbps
Channel(s) : 6 channels
Channel positions : Front: L C R, Side: L R, LFE
Sampling rate : 48.0 KHz
Bit depth : 24 bits
Compression mode : Lossy
Stream size : 89.3 MiB (9%)
Audio #3
ID : 189 (0xBD)-160 (0xA0)
Format : PCM
Format settings, Endianness : Big
Format settings, Sign : Signed
Muxing mode : DVD-Video
Duration : 16mn 32s
Bit rate mode : Constant
Bit rate : 1 536 Kbps
Channel(s) : 2 channels
Channel positions : Front: L R
Sampling rate : 48.0 KHz
Bit depth : 16 bits
Stream size : 182 MiB (18%)
Menu
General
Complete name : D:\Video\Carmen\disk1\VIDEO_TS\VTS_01_2.VOB
Format : MPEG-PS
File size : 1 024 MiB
Duration : 16mn 23s
Overall bit rate : 8 731 Kbps
Video
ID : 224 (0xE0)
Format : MPEG Video
Format version : Version 2
Format profile : Main@Main
Format settings, BVOP : Yes
Format settings, Matrix : Default
Format settings, GOP : M=3, N=12
Duration : 16mn 23s
Bit rate mode : Variable
Bit rate : 5 818 Kbps
Nominal bit rate : 9 800 Kbps
Width : 720 pixels
Height : 576 pixels
Display aspect ratio : 16:9
Frame rate : 25.000 fps
Standard : PAL
Color space : YUV
Chroma subsampling : 4:2:0
Bit depth : 8 bits
Scan type : Interlaced
Scan order : Top Field First
Compression mode : Lossy
Bits/(Pixel*Frame) : 0.561
Stream size : 682 MiB (67%)
Audio #1
ID : 189 (0xBD)-129 (0x81)
Format : AC-3
Format/Info : Audio Coding 3
Mode extension : CM (complete main)
Muxing mode : DVD-Video
Duration : 16mn 23s
Bit rate mode : Constant
Bit rate : 448 Kbps
Channel(s) : 6 channels
Channel positions : Front: L C R, Side: L R, LFE
Sampling rate : 48.0 KHz
Bit depth : 16 bits
Compression mode : Lossy
Delay relative to video : -368ms
Stream size : 52.5 MiB (5%)
Audio #2
ID : 189 (0xBD)-138 (0x8A)
Format : DTS
Format/Info : Digital Theater Systems
Muxing mode : DVD-Video
Duration : 16mn 23s
Bit rate mode : Constant
Bit rate : 755 Kbps
Channel(s) : 6 channels
Channel positions : Front: L C R, Side: L R, LFE
Sampling rate : 48.0 KHz
Bit depth : 24 bits
Compression mode : Lossy
Delay relative to video : -389ms
Stream size : 88.5 MiB (9%)
Audio #3
ID : 189 (0xBD)-160 (0xA0)
Format : PCM
Format settings, Endianness : Big
Format settings, Sign : Signed
Muxing mode : DVD-Video
Duration : 16mn 23s
Bit rate mode : Constant
Bit rate : 1 536 Kbps
Channel(s) : 2 channels
Channel positions : Front: L R
Sampling rate : 48.0 KHz
Bit depth : 16 bits
Delay relative to video : -421ms
Stream size : 180 MiB (18%)
Menu
General
Complete name : D:\Video\Carmen\disk1\VIDEO_TS\VTS_01_3.VOB
Format : MPEG-PS
File size : 1 024 MiB
Duration : 19mn 27s
Overall bit rate : 7 356 Kbps
Video
ID : 224 (0xE0)
Format : MPEG Video
Format version : Version 2
Format profile : Main@Main
Format settings, BVOP : Yes
Format settings, Matrix : Default
Format settings, GOP : M=3, N=12
Duration : 19mn 27s
Bit rate mode : Variable
Bit rate : 4 471 Kbps
Nominal bit rate : 9 800 Kbps
Width : 720 pixels
Height : 576 pixels
Display aspect ratio : 16:9
Frame rate : 25.000 fps
Standard : PAL
Color space : YUV
Chroma subsampling : 4:2:0
Bit depth : 8 bits
Scan type : Interlaced
Scan order : Top Field First
Compression mode : Lossy
Bits/(Pixel*Frame) : 0.431
Stream size : 622 MiB (61%)
Audio #1
ID : 189 (0xBD)-129 (0x81)
Format : AC-3
Format/Info : Audio Coding 3
Mode extension : CM (complete main)
Muxing mode : DVD-Video
Duration : 19mn 27s
Bit rate mode : Constant
Bit rate : 448 Kbps
Channel(s) : 6 channels
Channel positions : Front: L C R, Side: L R, LFE
Sampling rate : 48.0 KHz
Bit depth : 16 bits
Compression mode : Lossy
Delay relative to video : -624ms
Stream size : 62.4 MiB (6%)
Audio #2
ID : 189 (0xBD)-138 (0x8A)
Format : DTS
Format/Info : Digital Theater Systems
Muxing mode : DVD-Video
Duration : 19mn 27s
Bit rate mode : Constant
Bit rate : 755 Kbps
Channel(s) : 6 channels
Channel positions : Front: L C R, Side: L R, LFE
Sampling rate : 48.0 KHz
Bit depth : 24 bits
Compression mode : Lossy
Delay relative to video : -656ms
Stream size : 105 MiB (10%)
Audio #3
ID : 189 (0xBD)-160 (0xA0)
Format : PCM
Format settings, Endianness : Big
Format settings, Sign : Signed
Muxing mode : DVD-Video
Duration : 19mn 27s
Bit rate mode : Constant
Bit rate : 1 536 Kbps
Channel(s) : 2 channels
Channel positions : Front: L R
Sampling rate : 48.0 KHz
Bit depth : 16 bits
Delay relative to video : -673ms
Stream size : 214 MiB (21%)
Menu
General
Complete name : D:\Video\Carmen\disk1\VIDEO_TS\VTS_01_4.VOB
Format : MPEG-PS
File size : 76.6 MiB
Duration : 1mn 12s
Overall bit rate : 8 919 Kbps
Video
ID : 224 (0xE0)
Format : MPEG Video
Format version : Version 2
Format profile : Main@Main
Format settings, BVOP : Yes
Format settings, Matrix : Default
Format settings, GOP : M=3, N=12
Duration : 1mn 11s
Bit rate mode : Variable
Bit rate : 6 003 Kbps
Nominal bit rate : 9 800 Kbps
Width : 720 pixels
Height : 576 pixels
Display aspect ratio : 16:9
Frame rate : 25.000 fps
Standard : PAL
Color space : YUV
Chroma subsampling : 4:2:0
Bit depth : 8 bits
Scan type : Interlaced
Scan order : Top Field First
Compression mode : Lossy
Bits/(Pixel*Frame) : 0.579
Stream size : 51.3 MiB (67%)
Audio #1
ID : 189 (0xBD)-129 (0x81)
Format : AC-3
Format/Info : Audio Coding 3
Mode extension : CM (complete main)
Muxing mode : DVD-Video
Duration : 1mn 12s
Bit rate mode : Constant
Bit rate : 448 Kbps
Channel(s) : 6 channels
Channel positions : Front: L C R, Side: L R, LFE
Sampling rate : 48.0 KHz
Bit depth : 16 bits
Compression mode : Lossy
Delay relative to video : -528ms
Stream size : 3.85 MiB (5%)
Audio #2
ID : 189 (0xBD)-138 (0x8A)
Format : DTS
Format/Info : Digital Theater Systems
Muxing mode : DVD-Video
Duration : 1mn 12s
Bit rate mode : Constant
Bit rate : 755 Kbps
Channel(s) : 6 channels
Channel positions : Front: L C R, Side: L R, LFE
Sampling rate : 48.0 KHz
Bit depth : 24 bits
Compression mode : Lossy
Delay relative to video : -592ms
Stream size : 6.48 MiB (8%)
Audio #3
ID : 189 (0xBD)-160 (0xA0)
Format : PCM
Format settings, Endianness : Big
Format settings, Sign : Signed
Muxing mode : DVD-Video
Duration : 1mn 12s
Bit rate mode : Constant
Bit rate : 1 536 Kbps
Channel(s) : 2 channels
Channel positions : Front: L R
Sampling rate : 48.0 KHz
Bit depth : 16 bits
Delay relative to video : -610ms
Stream size : 13.2 MiB (17%)
Menu

Mediainfo disk 2

General
Complete name : D:\Video\Carmen\disk2\VIDEO_TS\VIDEO_TS.BUP
Format : DVD Video
Format profile : Menu
File size : 6.00 KiB
Video
ID : 224 (0xE0)
Format : MPEG Video
Format version : Version 2
Bit rate mode : Variable
Width : 720 pixels
Height : 576 pixels
Display aspect ratio : 4:3
Frame rate : 25.000 fps
Standard : PAL
Compression mode : Lossy
General
Complete name : D:\Video\Carmen\disk2\VIDEO_TS\VIDEO_TS.IFO
Format : DVD Video
Format profile : Menu
File size : 6.00 KiB
Video
ID : 224 (0xE0)
Format : MPEG Video
Format version : Version 2
Bit rate mode : Variable
Width : 720 pixels
Height : 576 pixels
Display aspect ratio : 4:3
Frame rate : 25.000 fps
Standard : PAL
Compression mode : Lossy
General
Complete name : D:\Video\Carmen\disk2\VIDEO_TS\VTS_01_0.BUP
Format : DVD Video
Format profile : Program
File size : 46.0 KiB
Duration : 1h 2mn
Overall bit rate : 101 bps
Video
ID : 224 (0xE0)
Format : MPEG Video
Format version : Version 2
Duration : 1h 2mn
Bit rate mode : Variable
Width : 720 pixels
Height : 576 pixels
Display aspect ratio : 16:9
Frame rate : 25.000 fps
Standard : PAL
Compression mode : Lossy
Audio #1
ID : 0 (0x0)
Format : PCM
Duration : 1h 2mn
Channel(s) : 2 channels
Sampling rate : 48.0 KHz
Language : Spanish
Audio #2
ID : 129 (0x81)
Format : AC-3
Format/Info : Audio Coding 3
Duration : 1h 2mn
Channel(s) : 6 channels
Sampling rate : 48.0 KHz
Compression mode : Lossy
Language : Spanish
Audio #3
ID : 138 (0x8A)
Format : DTS
Format/Info : Digital Theater Systems
Duration : 1h 2mn
Channel(s) : 6 channels
Sampling rate : 48.0 KHz
Compression mode : Lossy
Language : Spanish
Menu
Duration : 1h 2mn
00:00:00.000 : Chapter 1
00:15:26.040 : Chapter 2
00:32:15.000 : Chapter 3
00:43:49.440 : Chapter 4
00:51:19.600 : Chapter 5
List (Audio) : 0 / 1 / 2
General
Complete name : D:\Video\Carmen\disk2\VIDEO_TS\VTS_01_0.IFO
Format : DVD Video
Format profile : Program
File size : 46.0 KiB
Duration : 1h 2mn
Overall bit rate : 101 bps
Video
ID : 224 (0xE0)
Format : MPEG Video
Format version : Version 2
Duration : 1h 2mn
Bit rate mode : Variable
Width : 720 pixels
Height : 576 pixels
Display aspect ratio : 16:9
Frame rate : 25.000 fps
Standard : PAL
Compression mode : Lossy
Audio #1
ID : 0 (0x0)
Format : PCM
Duration : 1h 2mn
Channel(s) : 2 channels
Sampling rate : 48.0 KHz
Language : Spanish
Audio #2
ID : 129 (0x81)
Format : AC-3
Format/Info : Audio Coding 3
Duration : 1h 2mn
Channel(s) : 6 channels
Sampling rate : 48.0 KHz
Compression mode : Lossy
Language : Spanish
Audio #3
ID : 138 (0x8A)
Format : DTS
Format/Info : Digital Theater Systems
Duration : 1h 2mn
Channel(s) : 6 channels
Sampling rate : 48.0 KHz
Compression mode : Lossy
Language : Spanish
Menu
Duration : 1h 2mn
00:00:00.000 : Chapter 1
00:15:26.040 : Chapter 2
00:32:15.000 : Chapter 3
00:43:49.440 : Chapter 4
00:51:19.600 : Chapter 5
List (Audio) : 0 / 1 / 2
General
Complete name : D:\Video\Carmen\disk2\VIDEO_TS\VTS_01_1.VOB
Format : MPEG-PS
File size : 1 024 MiB
Duration : 15mn 21s
Overall bit rate : 9 320 Kbps
Video
ID : 224 (0xE0)
Format : MPEG Video
Format version : Version 2
Format profile : Main@Main
Format settings, BVOP : Yes
Format settings, Matrix : Default
Duration : 15mn 21s
Bit rate mode : Variable
Bit rate : 6 396 Kbps
Nominal bit rate : 9 800 Kbps
Width : 720 pixels
Height : 576 pixels
Display aspect ratio : 16:9
Frame rate : 25.000 fps
Standard : PAL
Color space : YUV
Chroma subsampling : 4:2:0
Bit depth : 8 bits
Scan type : Interlaced
Scan order : Top Field First
Compression mode : Lossy
Bits/(Pixel*Frame) : 0.617
Stream size : 703 MiB (69%)
Audio #1
ID : 189 (0xBD)-129 (0x81)
Format : AC-3
Format/Info : Audio Coding 3
Mode extension : CM (complete main)
Muxing mode : DVD-Video
Duration : 15mn 21s
Bit rate mode : Constant
Bit rate : 448 Kbps
Channel(s) : 6 channels
Channel positions : Front: L C R, Side: L R, LFE
Sampling rate : 48.0 KHz
Bit depth : 16 bits
Compression mode : Lossy
Delay relative to video : -248ms
Stream size : 49.2 MiB (5%)
Audio #2
ID : 189 (0xBD)-138 (0x8A)
Format : DTS
Format/Info : Digital Theater Systems
Muxing mode : DVD-Video
Duration : 15mn 21s
Bit rate mode : Constant
Bit rate : 755 Kbps
Channel(s) : 6 channels
Channel positions : Front: L C R, Side: L R, LFE
Sampling rate : 48.0 KHz
Bit depth : 24 bits
Compression mode : Lossy
Delay relative to video : -248ms
Stream size : 82.9 MiB (8%)
Audio #3
ID : 189 (0xBD)-160 (0xA0)
Format : PCM
Format settings, Endianness : Big
Format settings, Sign : Signed
Muxing mode : DVD-Video
Duration : 15mn 21s
Bit rate mode : Constant
Bit rate : 1 536 Kbps
Channel(s) : 2 channels
Channel positions : Front: L R
Sampling rate : 48.0 KHz
Bit depth : 16 bits
Delay relative to video : -273ms
Stream size : 169 MiB (16%)
Menu
General
Complete name : D:\Video\Carmen\disk2\VIDEO_TS\VTS_01_2.VOB
Format : MPEG-PS
File size : 1 024 MiB
Duration : 19mn 27s
Overall bit rate : 7 356 Kbps
Video
ID : 224 (0xE0)
Format : MPEG Video
Format version : Version 2
Format profile : Main@Main
Format settings, BVOP : Yes
Format settings, Matrix : Default
Format settings, GOP : M=3, N=12
Duration : 19mn 27s
Bit rate mode : Variable
Bit rate : 4 471 Kbps
Nominal bit rate : 9 800 Kbps
Width : 720 pixels
Height : 576 pixels
Display aspect ratio : 16:9
Frame rate : 25.000 fps
Standard : PAL
Color space : YUV
Chroma subsampling : 4:2:0
Bit depth : 8 bits
Scan type : Interlaced
Scan order : Top Field First
Compression mode : Lossy
Bits/(Pixel*Frame) : 0.431
Stream size : 622 MiB (61%)
Audio #1
ID : 189 (0xBD)-129 (0x81)
Format : AC-3
Format/Info : Audio Coding 3
Mode extension : CM (complete main)
Muxing mode : DVD-Video
Duration : 19mn 27s
Bit rate mode : Constant
Bit rate : 448 Kbps
Channel(s) : 6 channels
Channel positions : Front: L C R, Side: L R, LFE
Sampling rate : 48.0 KHz
Bit depth : 16 bits
Compression mode : Lossy
Delay relative to video : -432ms
Stream size : 62.4 MiB (6%)
Audio #2
ID : 189 (0xBD)-138 (0x8A)
Format : DTS
Format/Info : Digital Theater Systems
Muxing mode : DVD-Video
Duration : 19mn 27s
Bit rate mode : Constant
Bit rate : 755 Kbps
Channel(s) : 6 channels
Channel positions : Front: L C R, Side: L R, LFE
Sampling rate : 48.0 KHz
Bit depth : 24 bits
Compression mode : Lossy
Delay relative to video : -507ms
Stream size : 105 MiB (10%)
Audio #3
ID : 189 (0xBD)-160 (0xA0)
Format : PCM
Format settings, Endianness : Big
Format settings, Sign : Signed
Muxing mode : DVD-Video
Duration : 19mn 27s
Bit rate mode : Constant
Bit rate : 1 536 Kbps
Channel(s) : 2 channels
Channel positions : Front: L R
Sampling rate : 48.0 KHz
Bit depth : 16 bits
Delay relative to video : -522ms
Stream size : 214 MiB (21%)
Menu
General
Complete name : D:\Video\Carmen\disk2\VIDEO_TS\VTS_01_3.VOB
Format : MPEG-PS
File size : 1 024 MiB
Duration : 15mn 47s
Overall bit rate : 9 066 Kbps
Video
ID : 224 (0xE0)
Format : MPEG Video
Format version : Version 2
Format profile : Main@Main
Format settings, BVOP : Yes
Format settings, Matrix : Default
Format settings, GOP : M=3, N=12
Duration : 15mn 47s
Bit rate mode : Variable
Bit rate : 6 147 Kbps
Nominal bit rate : 9 800 Kbps
Width : 720 pixels
Height : 576 pixels
Display aspect ratio : 16:9
Frame rate : 25.000 fps
Standard : PAL
Color space : YUV
Chroma subsampling : 4:2:0
Bit depth : 8 bits
Scan type : Interlaced
Scan order : Top Field First
Compression mode : Lossy
Bits/(Pixel*Frame) : 0.593
Stream size : 694 MiB (68%)
Audio #1
ID : 189 (0xBD)-129 (0x81)
Format : AC-3
Format/Info : Audio Coding 3
Mode extension : CM (complete main)
Muxing mode : DVD-Video
Duration : 15mn 47s
Bit rate mode : Constant
Bit rate : 448 Kbps
Channel(s) : 6 channels
Channel positions : Front: L C R, Side: L R, LFE
Sampling rate : 48.0 KHz
Bit depth : 16 bits
Compression mode : Lossy
Delay relative to video : -448ms
Stream size : 50.6 MiB (5%)
Audio #2
ID : 189 (0xBD)-138 (0x8A)
Format : DTS
Format/Info : Digital Theater Systems
Muxing mode : DVD-Video
Duration : 15mn 47s
Bit rate mode : Constant
Bit rate : 755 Kbps
Channel(s) : 6 channels
Channel positions : Front: L C R, Side: L R, LFE
Sampling rate : 48.0 KHz
Bit depth : 24 bits
Compression mode : Lossy
Delay relative to video : -523ms
Stream size : 85.2 MiB (8%)
Audio #3
ID : 189 (0xBD)-160 (0xA0)
Format : PCM
Format settings, Endianness : Big
Format settings, Sign : Signed
Muxing mode : DVD-Video
Duration : 15mn 47s
Bit rate mode : Constant
Bit rate : 1 536 Kbps
Channel(s) : 2 channels
Channel positions : Front: L R
Sampling rate : 48.0 KHz
Bit depth : 16 bits
Delay relative to video : -548ms
Stream size : 173 MiB (17%)
Menu
General
Complete name : D:\Video\Carmen\disk2\VIDEO_TS\VTS_01_4.VOB
Format : MPEG-PS
File size : 757 MiB
Duration : 11mn 25s
Overall bit rate : 9 268 Kbps
Video
ID : 224 (0xE0)
Format : MPEG Video
Format version : Version 2
Format profile : Main@Main
Format settings, BVOP : Yes
Format settings, Matrix : Default
Format settings, GOP : M=3, N=12
Duration : 11mn 24s
Bit rate mode : Variable
Bit rate : 6 345 Kbps
Nominal bit rate : 9 800 Kbps
Width : 720 pixels
Height : 576 pixels
Display aspect ratio : 16:9
Frame rate : 25.000 fps
Standard : PAL
Color space : YUV
Chroma subsampling : 4:2:0
Bit depth : 8 bits
Scan type : Interlaced
Scan order : Top Field First
Compression mode : Lossy
Bits/(Pixel*Frame) : 0.612
Stream size : 518 MiB (68%)
Audio #1
ID : 189 (0xBD)-129 (0x81)
Format : AC-3
Format/Info : Audio Coding 3
Mode extension : CM (complete main)
Muxing mode : DVD-Video
Duration : 11mn 24s
Bit rate mode : Constant
Bit rate : 448 Kbps
Channel(s) : 6 channels
Channel positions : Front: L C R, Side: L R, LFE
Sampling rate : 48.0 KHz
Bit depth : 16 bits
Compression mode : Lossy
Delay relative to video : -392ms
Stream size : 36.6 MiB (5%)
Audio #2
ID : 189 (0xBD)-138 (0x8A)
Format : DTS
Format/Info : Digital Theater Systems
Muxing mode : DVD-Video
Duration : 11mn 25s
Bit rate mode : Constant
Bit rate : 755 Kbps
Channel(s) : 6 channels
Channel positions : Front: L C R, Side: L R, LFE
Sampling rate : 48.0 KHz
Bit depth : 24 bits
Compression mode : Lossy
Delay relative to video : -424ms
Stream size : 61.6 MiB (8%)
Audio #3
ID : 189 (0xBD)-160 (0xA0)
Format : PCM
Format settings, Endianness : Big
Format settings, Sign : Signed
Muxing mode : DVD-Video
Duration : 11mn 25s
Bit rate mode : Constant
Bit rate : 1 536 Kbps
Channel(s) : 2 channels
Channel positions : Front: L R
Sampling rate : 48.0 KHz
Bit depth : 16 bits
Delay relative to video : -455ms
Stream size : 125 MiB (17%)
Menu



Показать сообщения:    

Текущее время: 02-Дек 21:16

Часовой пояс: UTC + 3


Вы не можете начинать темы
Вы не можете отвечать на сообщения
Вы не можете редактировать свои сообщения
Вы не можете удалять свои сообщения
Вы не можете голосовать в опросах
Вы не можете прикреплять файлы к сообщениям
Вы не можете скачивать файлы