МакГрегор: Три балета / Wayne McGregor: Three Ballets (Chroma/Infra/Limen) [2011, Classical, Balet, Modern Classical, Blu-ray/1080i]


 

[Цитировать]

МакГрегор: Три балета / Wayne McGregor: Three Ballets (Chroma/Infra/Limen)
Год выпуска: 2011
Жанр: Classical, Balet, Modern Classical
Продолжительность: 01:38:00
Производство: США | Opus Arte
Режиссер/Хореограф: Barry Wordsworth
Исполнители: Federico Bonelli, Ricardo Cervera, Tamara Rojo, Mara GaleazzI, Sarah Lamb, Steven Mcrae, Laura Morera, Ludovic Ondiviela, Eric Underwood, Jonathan Watkins, Edward Watson, Orchestra of the Royal Opera House
Треклист:
1. Хрома (Chroma). Музыка: Джоби Тэлбот (Joby Talbot), Джек Уайт III (Jack White III) .
2. Инфра (Infra). Музыка: Макс Рихтер (Max Richter). Уэйн МакГрегор стал обладателями приза "Benois de la Danse – 2009" в номинации "Хореографы" за балет "Инфра" (Королевский балет Великобритании).
3. Лимен (Limen). Музыка: Кайя Саариахо (Kaija Saariaho).
Качество видео: Blu-ray (Disc Title: McGregor - Three Ballets (Chroma/Infra/Limen) 1080i Blu-ray AVC DTS-HD MA 5.1)
Формат/Контейнер: BDMV
Видео кодек: MPEG-4 AVC Video
Аудиокодек: DTS-HD MA, DTS
Видео поток: MPEG-4 AVC Video / 34 788 kbps / 1080i / 29,970 fps / 16:9 / High Profile 4.1
Аудио поток 1: DTS-HD Master Audio, 5.1 / 48 kHz / 4095 kbps / 24-bit (DTS Core: 5.1 / 48 kHz / 1509 kbps
Аудио поток 2: LPCM / 2 304 kbps / 2.0 / 48 kHz / 2304 kbps / 24-bit

Скриншоты



BDInfo

Disc Title: McGregor - Three Ballets (Chroma/Infra/Limen) 1080i Blu-ray AVC DTS-HD MA 5.1
Disc Size: 31 546 126 816 bytes
Protection: AACS
BD-Java: No
BDInfo: 0.5.6
Notes:
BDINFO HOME:
Cinema Squid
http://www.cinemasquid.com/blu-ray/tools/bdinfo
INCLUDES FORUMS REPORT FOR:
AVS Forum Blu-ray Audio and Video Specifications Thread
http://www.avsforum.com/avs-vb/showthread.php?t=1155731
********************
PLAYLIST: 00005.MPLS
********************
Total   Video
Title                                                           Codec   Length  Movie Size      Disc Size       Bitrate Bitrate Main Audio Track                          Secondary Audio Track
-----                                                           ------  ------- --------------  --------------  ------- ------- ------------------                        ---------------------
00005.MPLS                                                      AVC     0:29:34 9 622 001 664   31 546 126 816  43,37   34,79   DTS-HD Master 5.1 4095Kbps (48kHz/24-bit) LPCM 2.0 2304Kbps (48kHz/24-bit)
DISC INFO:
Disc Title:     McGregor - Three Ballets (Chroma/Infra/Limen) 1080i Blu-ray AVC DTS-HD MA 5.1
Disc Size:      31 546 126 816 bytes
Protection:     AACS
BD-Java:        No
BDInfo:         0.5.6
PLAYLIST REPORT:
Name:                   00005.MPLS
Length:                 0:29:34 (h:m:s)
Size:                   9 622 001 664 bytes
Total Bitrate:          43,37 Mbps
VIDEO:
Codec                   Bitrate             Description
-----                   -------             -----------
MPEG-4 AVC Video        34788 kbps          1080i / 29,970 fps / 16:9 / High Profile 4.1
AUDIO:
Codec                           Language        Bitrate         Description
-----                           --------        -------         -----------
DTS-HD Master Audio             Undetermined    4095 kbps       5.1 / 48 kHz / 4095 kbps / 24-bit (DTS Core: 5.1 / 48 kHz / 1509 kbps / 24-bit)
LPCM Audio                      Undetermined    2304 kbps       2.0 / 48 kHz / 2304 kbps / 24-bit
FILES:
Name            Time In         Length          Size            Total Bitrate
----            -------         ------          ----            -------------
00008.M2TS      0:00:00.000     0:29:34.806     9 622 001 664   43 371
CHAPTERS:
Number          Time In         Length          Avg Video Rate  Max 1-Sec Rate  Max 1-Sec Time  Max 5-Sec Rate  Max 5-Sec Time  Max 10Sec Rate  Max 10Sec Time  Avg Frame Size  Max Frame Size  Max Frame Time
------          -------         ------          --------------  --------------  --------------  --------------  --------------  --------------  --------------  --------------  --------------  --------------
1               0:00:00.000     0:03:56.469     34 945 kbps     56 294 kbps     00:00:06.139    38 900 kbps     00:00:06.206    38 042 kbps     00:00:06.139    145 728 bytes   515 005 bytes   00:00:06.306
2               0:03:56.469     0:03:10.256     35 697 kbps     42 246 kbps     00:06:17.643    37 587 kbps     00:06:14.107    36 866 kbps     00:06:13.005    148 888 bytes   334 319 bytes   00:04:07.981
3               0:07:06.726     0:03:04.584     35 785 kbps     44 969 kbps     00:07:57.510    38 593 kbps     00:07:55.374    37 295 kbps     00:07:50.369    149 253 bytes   353 616 bytes   00:07:36.155
4               0:10:11.310     0:03:09.722     36 074 kbps     50 255 kbps     00:11:32.892    39 077 kbps     00:11:30.456    37 685 kbps     00:13:01.680    150 460 bytes   434 770 bytes   00:11:33.292
5               0:13:21.033     0:01:31.357     35 299 kbps     47 783 kbps     00:13:51.997    37 945 kbps     00:13:58.704    37 096 kbps     00:13:51.964    147 226 bytes   380 745 bytes   00:13:52.031
6               0:14:52.391     0:05:55.521     35 762 kbps     43 732 kbps     00:20:24.122    40 199 kbps     00:19:49.922    38 617 kbps     00:19:46.985    149 155 bytes   417 978 bytes   00:15:01.700
7               0:20:47.913     0:04:25.732     35 696 kbps     47 368 kbps     00:20:49.181    39 751 kbps     00:24:07.145    38 669 kbps     00:24:01.406    148 882 bytes   429 719 bytes   00:21:10.102
8               0:25:13.645     0:03:18.565     35 572 kbps     44 920 kbps     00:28:30.241    37 222 kbps     00:28:26.438    36 308 kbps     00:25:52.784    148 363 bytes   325 515 bytes   00:28:31.242
9               0:28:32.210     0:01:02.595     11 982 kbps     24 426 kbps     00:28:50.795    22 035 kbps     00:28:49.394    19 831 kbps     00:28:48.193    50 002 bytes    170 060 bytes   00:28:51.196
STREAM DIAGNOSTICS:
File            PID             Type            Codec           Language                Seconds                 Bitrate                 Bytes           Packets
----            ---             ----            -----           --------                --------------          --------------          -------------   -----
00008.M2TS      4113 (0x1011)   0x1B            AVC                                     1774,740                34 789                  7 717 763 662   42 002 108
00008.M2TS      4352 (0x1100)   0x86            DTS-HD MA       und (Undetermined)      1774,740                4 095                   908 423 300     5 213 297
00008.M2TS      4353 (0x1101)   0x80            LPCM            und (Undetermined)      1774,740                2 310                   512 565 128     2 839 696
QUICK SUMMARY:
Disc Title: McGregor - Three Ballets (Chroma/Infra/Limen) 1080i Blu-ray AVC DTS-HD MA 5.1
Disc Size: 31 546 126 816 bytes
Protection: AACS
BD-Java: No
Playlist: 00005.MPLS
Size: 9 622 001 664 bytes
Length: 0:29:34
Total Bitrate: 43,37 Mbps
Video: MPEG-4 AVC Video / 34788 kbps / 1080i / 29,970 fps / 16:9 / High Profile 4.1
Audio: Undetermined / DTS-HD Master Audio / 5.1 / 48 kHz / 4095 kbps / 24-bit (DTS Core: 5.1 / 48 kHz / 1509 kbps / 24-bit)
Audio: Undetermined / LPCM Audio / 2.0 / 48 kHz / 2304 kbps / 24-bit
********************
PLAYLIST: 00007.MPLS
********************
Total   Video
Title                                                           Codec   Length  Movie Size      Disc Size       Bitrate Bitrate Main Audio Track                          Secondary Audio Track
-----                                                           ------  ------- --------------  --------------  ------- ------- ------------------                        ---------------------
00007.MPLS                                                      AVC     0:28:50 9 361 072 128   31 546 126 816  43,27   34,59   DTS-HD Master 5.1 4193Kbps (48kHz/24-bit) LPCM 2.0 2304Kbps (48kHz/24-bit)
DISC INFO:
Disc Title:     McGregor - Three Ballets (Chroma/Infra/Limen) 1080i Blu-ray AVC DTS-HD MA 5.1
Disc Size:      31 546 126 816 bytes
Protection:     AACS
BD-Java:        No
BDInfo:         0.5.6
PLAYLIST REPORT:
Name:                   00007.MPLS
Length:                 0:28:50 (h:m:s)
Size:                   9 361 072 128 bytes
Total Bitrate:          43,27 Mbps
VIDEO:
Codec                   Bitrate             Description
-----                   -------             -----------
MPEG-4 AVC Video        34591 kbps          1080i / 29,970 fps / 16:9 / High Profile 4.1
AUDIO:
Codec                           Language        Bitrate         Description
-----                           --------        -------         -----------
DTS-HD Master Audio             Undetermined    4193 kbps       5.1 / 48 kHz / 4193 kbps / 24-bit (DTS Core: 5.1 / 48 kHz / 1509 kbps / 24-bit)
LPCM Audio                      Undetermined    2304 kbps       2.0 / 48 kHz / 2304 kbps / 24-bit
FILES:
Name            Time In         Length          Size            Total Bitrate
----            -------         ------          ----            -------------
00010.M2TS      0:00:00.000     0:28:50.762     9 361 072 128   43 269
CHAPTERS:
Number          Time In         Length          Avg Video Rate  Max 1-Sec Rate  Max 1-Sec Time  Max 5-Sec Rate  Max 5-Sec Time  Max 10Sec Rate  Max 10Sec Time  Avg Frame Size  Max Frame Size  Max Frame Time
------          -------         ------          --------------  --------------  --------------  --------------  --------------  --------------  --------------  --------------  --------------  --------------
1               0:00:00.000     0:05:33.166     33 361 kbps     59 262 kbps     00:00:07.340    38 064 kbps     00:00:07.340    36 603 kbps     00:00:07.340    139 131 bytes   558 074 bytes   00:00:07.574
2               0:05:33.166     0:03:25.872     36 225 kbps     49 190 kbps     00:05:34.267    39 210 kbps     00:06:23.316    37 550 kbps     00:06:23.249    151 090 bytes   444 801 bytes   00:08:28.274
3               0:08:59.038     0:07:39.759     35 864 kbps     41 896 kbps     00:10:16.015    38 261 kbps     00:14:45.718    37 355 kbps     00:14:20.826    149 582 bytes   362 829 bytes   00:13:46.992
4               0:16:38.797     0:03:53.633     35 479 kbps     55 734 kbps     00:16:40.232    38 911 kbps     00:16:40.232    37 897 kbps     00:16:40.232    147 976 bytes   307 395 bytes   00:16:40.666
5               0:20:32.431     0:07:15.935     35 733 kbps     46 959 kbps     00:23:19.264    38 114 kbps     00:23:19.264    37 044 kbps     00:27:32.283    149 038 bytes   414 406 bytes   00:20:39.671
6               0:27:48.366     0:01:02.395     15 080 kbps     27 644 kbps     00:28:06.718    24 903 kbps     00:28:05.283    23 269 kbps     00:28:03.948    62 931 bytes    188 218 bytes   00:28:07.585
STREAM DIAGNOSTICS:
File            PID             Type            Codec           Language                Seconds                 Bitrate                 Bytes           Packets
----            ---             ----            -----           --------                --------------          --------------          -------------   -----
00010.M2TS      4113 (0x1011)   0x1B            AVC                                     1730,662                34 593                  7 483 594 461   40 727 990
00010.M2TS      4352 (0x1100)   0x86            DTS-HD MA       und (Undetermined)      1730,662                4 193                   907 184 356     5 200 359
00010.M2TS      4353 (0x1101)   0x80            LPCM            und (Undetermined)      1730,662                2 311                   499 844 932     2 769 224
QUICK SUMMARY:
Disc Title: McGregor - Three Ballets (Chroma/Infra/Limen) 1080i Blu-ray AVC DTS-HD MA 5.1
Disc Size: 31 546 126 816 bytes
Protection: AACS
BD-Java: No
Playlist: 00007.MPLS
Size: 9 361 072 128 bytes
Length: 0:28:50
Total Bitrate: 43,27 Mbps
Video: MPEG-4 AVC Video / 34591 kbps / 1080i / 29,970 fps / 16:9 / High Profile 4.1
Audio: Undetermined / DTS-HD Master Audio / 5.1 / 48 kHz / 4193 kbps / 24-bit (DTS Core: 5.1 / 48 kHz / 1509 kbps / 24-bit)
Audio: Undetermined / LPCM Audio / 2.0 / 48 kHz / 2304 kbps / 24-bit
********************
PLAYLIST: 00003.MPLS
********************
Total   Video
Title                                                           Codec   Length  Movie Size      Disc Size       Bitrate Bitrate Main Audio Track                          Secondary Audio Track
-----                                                           ------  ------- --------------  --------------  ------- ------- ------------------                        ---------------------
00003.MPLS                                                      AVC     0:25:01 8 112 070 656   31 546 126 816  43,22   34,56   DTS-HD Master 5.1 4179Kbps (48kHz/24-bit) LPCM 2.0 2304Kbps (48kHz/24-bit)
DISC INFO:
Disc Title:     McGregor - Three Ballets (Chroma/Infra/Limen) 1080i Blu-ray AVC DTS-HD MA 5.1
Disc Size:      31 546 126 816 bytes
Protection:     AACS
BD-Java:        No
BDInfo:         0.5.6
PLAYLIST REPORT:
Name:                   00003.MPLS
Length:                 0:25:01 (h:m:s)
Size:                   8 112 070 656 bytes
Total Bitrate:          43,22 Mbps
VIDEO:
Codec                   Bitrate             Description
-----                   -------             -----------
MPEG-4 AVC Video        34559 kbps          1080i / 29,970 fps / 16:9 / High Profile 4.1
AUDIO:
Codec                           Language        Bitrate         Description
-----                           --------        -------         -----------
DTS-HD Master Audio             Undetermined    4179 kbps       5.1 / 48 kHz / 4179 kbps / 24-bit (DTS Core: 5.1 / 48 kHz / 1509 kbps / 24-bit)
LPCM Audio                      Undetermined    2304 kbps       2.0 / 48 kHz / 2304 kbps / 24-bit
FILES:
Name            Time In         Length          Size            Total Bitrate
----            -------         ------          ----            -------------
00006.M2TS      0:00:00.000     0:25:01.533     8 112 070 656   43 220
CHAPTERS:
Number          Time In         Length          Avg Video Rate  Max 1-Sec Rate  Max 1-Sec Time  Max 5-Sec Rate  Max 5-Sec Time  Max 10Sec Rate  Max 10Sec Time  Avg Frame Size  Max Frame Size  Max Frame Time
------          -------         ------          --------------  --------------  --------------  --------------  --------------  --------------  --------------  --------------  --------------  --------------
1               0:00:00.000     0:02:50.537     34 601 kbps     58 798 kbps     00:00:03.169    38 517 kbps     00:00:03.203    37 524 kbps     00:00:03.203    144 286 bytes   459 335 bytes   00:00:03.503
2               0:02:50.537     0:03:30.510     36 767 kbps     48 320 kbps     00:02:53.039    38 814 kbps     00:04:30.737    38 161 kbps     00:05:03.703    153 347 bytes   500 683 bytes   00:06:20.880
3               0:06:21.047     0:03:42.655     35 993 kbps     50 984 kbps     00:06:22.615    38 116 kbps     00:08:40.987    37 436 kbps     00:08:40.987    150 122 bytes   291 709 bytes   00:06:22.782
4               0:10:03.703     0:02:48.268     33 197 kbps     44 439 kbps     00:11:52.411    37 261 kbps     00:12:05.224    36 434 kbps     00:12:05.057    138 459 bytes   333 671 bytes   00:12:43.295
5               0:12:51.971     0:02:59.312     37 183 kbps     51 163 kbps     00:12:53.172    38 869 kbps     00:12:53.172    38 566 kbps     00:14:53.025    155 084 bytes   306 330 bytes   00:13:20.833
6               0:15:51.283     0:03:24.737     35 064 kbps     39 586 kbps     00:18:07.019    37 356 kbps     00:16:04.897    36 970 kbps     00:18:57.202    146 244 bytes   282 882 bytes   00:16:15.207
7               0:19:16.021     0:04:43.416     34 851 kbps     46 020 kbps     00:23:46.258    37 882 kbps     00:20:04.503    37 787 kbps     00:20:04.503    145 356 bytes   398 577 bytes   00:23:03.081
8               0:23:59.438     0:01:02.095     14 927 kbps     26 997 kbps     00:24:18.557    25 521 kbps     00:24:17.155    23 243 kbps     00:24:15.654    62 290 bytes    187 422 bytes   00:24:19.458
STREAM DIAGNOSTICS:
File            PID             Type            Codec           Language                Seconds                 Bitrate                 Bytes           Packets
----            ---             ----            -----           --------                --------------          --------------          -------------   -----
00006.M2TS      4113 (0x1011)   0x1B            AVC                                     1501,433                34 561                  6 486 359 813   35 300 676
00006.M2TS      4352 (0x1100)   0x86            DTS-HD MA       und (Undetermined)      1501,433                4 179                   784 282 080     4 496 888
00006.M2TS      4353 (0x1101)   0x80            LPCM            und (Undetermined)      1501,433                2 311                   433 643 308     2 402 456
QUICK SUMMARY:
Disc Title: McGregor - Three Ballets (Chroma/Infra/Limen) 1080i Blu-ray AVC DTS-HD MA 5.1
Disc Size: 31 546 126 816 bytes
Protection: AACS
BD-Java: No
Playlist: 00003.MPLS
Size: 8 112 070 656 bytes
Length: 0:25:01
Total Bitrate: 43,22 Mbps
Video: MPEG-4 AVC Video / 34559 kbps / 1080i / 29,970 fps / 16:9 / High Profile 4.1
Audio: Undetermined / DTS-HD Master Audio / 5.1 / 48 kHz / 4179 kbps / 24-bit (DTS Core: 5.1 / 48 kHz / 1509 kbps / 24-bit)
Audio: Undetermined / LPCM Audio / 2.0 / 48 kHz / 2304 kbps / 24-bit
********************
PLAYLIST: 00004.MPLS
********************
Total   Video
Title                                                           Codec   Length  Movie Size      Disc Size       Bitrate Bitrate Main Audio Track                          Secondary Audio Track
-----                                                           ------  ------- --------------  --------------  ------- ------- ------------------                        ---------------------
00004.MPLS                                                      AVC     0:05:16 1 573 165 056   31 546 126 816  39,78   36,00   LPCM 2.0 1536Kbps (48kHz/16-bit)
DISC INFO:
Disc Title:     McGregor - Three Ballets (Chroma/Infra/Limen) 1080i Blu-ray AVC DTS-HD MA 5.1
Disc Size:      31 546 126 816 bytes
Protection:     AACS
BD-Java:        No
BDInfo:         0.5.6
PLAYLIST REPORT:
Name:                   00004.MPLS
Length:                 0:05:16 (h:m:s)
Size:                   1 573 165 056 bytes
Total Bitrate:          39,78 Mbps
VIDEO:
Codec                   Bitrate             Description
-----                   -------             -----------
MPEG-4 AVC Video        36001 kbps          1080i / 29,970 fps / 16:9 / High Profile 4.1
AUDIO:
Codec                           Language        Bitrate         Description
-----                           --------        -------         -----------
LPCM Audio                      English         1536 kbps       2.0 / 48 kHz / 1536 kbps / 16-bit
SUBTITLES:
Codec                           Language        Bitrate         Description
-----                           --------        -------         -----------
Presentation Graphics           French          79,730 kbps
Presentation Graphics           German          89,167 kbps
Presentation Graphics           Spanish         79,690 kbps
FILES:
Name            Time In         Length          Size            Total Bitrate
----            -------         ------          ----            -------------
00007.M2TS      0:00:00.000     0:05:16.349     1 573 165 056   39 783
CHAPTERS:
Number          Time In         Length          Avg Video Rate  Max 1-Sec Rate  Max 1-Sec Time  Max 5-Sec Rate  Max 5-Sec Time  Max 10Sec Rate  Max 10Sec Time  Avg Frame Size  Max Frame Size  Max Frame Time
------          -------         ------          --------------  --------------  --------------  --------------  --------------  --------------  --------------  --------------  --------------  --------------
1               0:00:00.000     0:05:16.349     36 001 kbps     58 269 kbps     00:00:01.067    39 691 kbps     00:01:31.925    37 877 kbps     00:01:26.986    150 155 bytes   463 666 bytes   00:00:01.735
STREAM DIAGNOSTICS:
File            PID             Type            Codec           Language                Seconds                 Bitrate                 Bytes           Packets
----            ---             ----            -----           --------                --------------          --------------          -------------   -----
00007.M2TS      4113 (0x1011)   0x1B            AVC                                     316,283                 36 009                  1 423 618 663   7 748 178
00007.M2TS      4352 (0x1100)   0x80            LPCM            eng (English)           316,283                 1 543                   60 992 280      379 620
00007.M2TS      4608 (0x1200)   0x90            PGS             fra (French)            316,283                 80                      3 152 798       17 710
00007.M2TS      4609 (0x1201)   0x90            PGS             deu (German)            316,283                 89                      3 525 974       19 742
00007.M2TS      4610 (0x1202)   0x90            PGS             spa (Spanish)           316,283                 80                      3 151 245       17 703
QUICK SUMMARY:
Disc Title: McGregor - Three Ballets (Chroma/Infra/Limen) 1080i Blu-ray AVC DTS-HD MA 5.1
Disc Size: 31 546 126 816 bytes
Protection: AACS
BD-Java: No
Playlist: 00004.MPLS
Size: 1 573 165 056 bytes
Length: 0:05:16
Total Bitrate: 39,78 Mbps
Video: MPEG-4 AVC Video / 36001 kbps / 1080i / 29,970 fps / 16:9 / High Profile 4.1
Audio: English / LPCM Audio / 2.0 / 48 kHz / 1536 kbps / 16-bit
Subtitle: French / 79,730 kbps
Subtitle: German / 89,167 kbps
Subtitle: Spanish / 79,690 kbps
********************
PLAYLIST: 00006.MPLS
********************
Total   Video
Title                                                           Codec   Length  Movie Size      Disc Size       Bitrate Bitrate Main Audio Track                          Secondary Audio Track
-----                                                           ------  ------- --------------  --------------  ------- ------- ------------------                        ---------------------
00006.MPLS                                                      AVC     0:04:50 1 443 237 888   31 546 126 816  39,77   36,00   LPCM 2.0 1536Kbps (48kHz/16-bit)
DISC INFO:
Disc Title:     McGregor - Three Ballets (Chroma/Infra/Limen) 1080i Blu-ray AVC DTS-HD MA 5.1
Disc Size:      31 546 126 816 bytes
Protection:     AACS
BD-Java:        No
BDInfo:         0.5.6
PLAYLIST REPORT:
Name:                   00006.MPLS
Length:                 0:04:50 (h:m:s)
Size:                   1 443 237 888 bytes
Total Bitrate:          39,77 Mbps
VIDEO:
Codec                   Bitrate             Description
-----                   -------             -----------
MPEG-4 AVC Video        36001 kbps          1080i / 29,970 fps / 16:9 / High Profile 4.1
AUDIO:
Codec                           Language        Bitrate         Description
-----                           --------        -------         -----------
LPCM Audio                      English         1536 kbps       2.0 / 48 kHz / 1536 kbps / 16-bit
SUBTITLES:
Codec                           Language        Bitrate         Description
-----                           --------        -------         -----------
Presentation Graphics           French          76,124 kbps
Presentation Graphics           German          84,624 kbps
Presentation Graphics           Spanish         74,888 kbps
FILES:
Name            Time In         Length          Size            Total Bitrate
----            -------         ------          ----            -------------
00009.M2TS      0:00:00.000     0:04:50.323     1 443 237 888   39 769
CHAPTERS:
Number          Time In         Length          Avg Video Rate  Max 1-Sec Rate  Max 1-Sec Time  Max 5-Sec Rate  Max 5-Sec Time  Max 10Sec Rate  Max 10Sec Time  Avg Frame Size  Max Frame Size  Max Frame Time
------          -------         ------          --------------  --------------  --------------  --------------  --------------  --------------  --------------  --------------  --------------  --------------
1               0:00:00.000     0:04:50.323     36 001 kbps     61 176 kbps     00:00:00.867    39 898 kbps     00:01:17.010    38 057 kbps     00:01:11.971    150 155 bytes   441 682 bytes   00:01:21.648
STREAM DIAGNOSTICS:
File            PID             Type            Codec           Language                Seconds                 Bitrate                 Bytes           Packets
----            ---             ----            -----           --------                --------------          --------------          -------------   -----
00009.M2TS      4113 (0x1011)   0x1B            AVC                                     290,257                 36 009                  1 306 498 483   7 110 742
00009.M2TS      4352 (0x1100)   0x80            LPCM            eng (English)           290,257                 1 543                   55 974 660      348 390
00009.M2TS      4608 (0x1200)   0x90            PGS             fra (French)            290,257                 76                      2 762 571       15 518
00009.M2TS      4609 (0x1201)   0x90            PGS             deu (German)            290,257                 85                      3 071 029       17 197
00009.M2TS      4610 (0x1202)   0x90            PGS             spa (Spanish)           290,257                 75                      2 717 720       15 282
QUICK SUMMARY:
Disc Title: McGregor - Three Ballets (Chroma/Infra/Limen) 1080i Blu-ray AVC DTS-HD MA 5.1
Disc Size: 31 546 126 816 bytes
Protection: AACS
BD-Java: No
Playlist: 00006.MPLS
Size: 1 443 237 888 bytes
Length: 0:04:50
Total Bitrate: 39,77 Mbps
Video: MPEG-4 AVC Video / 36001 kbps / 1080i / 29,970 fps / 16:9 / High Profile 4.1
Audio: English / LPCM Audio / 2.0 / 48 kHz / 1536 kbps / 16-bit
Subtitle: French / 76,124 kbps
Subtitle: German / 84,624 kbps
Subtitle: Spanish / 74,888 kbps
********************
PLAYLIST: 00002.MPLS
********************
Total   Video
Title                                                           Codec   Length  Movie Size      Disc Size       Bitrate Bitrate Main Audio Track                          Secondary Audio Track
-----                                                           ------  ------- --------------  --------------  ------- ------- ------------------                        ---------------------
00002.MPLS                                                      AVC     0:04:07 1 229 991 936   31 546 126 816  39,79   36,00   LPCM 2.0 1536Kbps (48kHz/16-bit)
DISC INFO:
Disc Title:     McGregor - Three Ballets (Chroma/Infra/Limen) 1080i Blu-ray AVC DTS-HD MA 5.1
Disc Size:      31 546 126 816 bytes
Protection:     AACS
BD-Java:        No
BDInfo:         0.5.6
PLAYLIST REPORT:
Name:                   00002.MPLS
Length:                 0:04:07 (h:m:s)
Size:                   1 229 991 936 bytes
Total Bitrate:          39,79 Mbps
VIDEO:
Codec                   Bitrate             Description
-----                   -------             -----------
MPEG-4 AVC Video        36001 kbps          1080i / 29,970 fps / 16:9 / High Profile 4.1
AUDIO:
Codec                           Language        Bitrate         Description
-----                           --------        -------         -----------
LPCM Audio                      English         1536 kbps       2.0 / 48 kHz / 1536 kbps / 16-bit
SUBTITLES:
Codec                           Language        Bitrate         Description
-----                           --------        -------         -----------
Presentation Graphics           French          82,946 kbps
Presentation Graphics           German          93,902 kbps
Presentation Graphics           Spanish         81,694 kbps
FILES:
Name            Time In         Length          Size            Total Bitrate
----            -------         ------          ----            -------------
00005.M2TS      0:00:00.000     0:04:07.280     1 229 991 936   39 793
CHAPTERS:
Number          Time In         Length          Avg Video Rate  Max 1-Sec Rate  Max 1-Sec Time  Max 5-Sec Rate  Max 5-Sec Time  Max 10Sec Rate  Max 10Sec Time  Avg Frame Size  Max Frame Size  Max Frame Time
------          -------         ------          --------------  --------------  --------------  --------------  --------------  --------------  --------------  --------------  --------------  --------------
1               0:00:00.000     0:04:07.280     36 001 kbps     57 952 kbps     00:00:01.067    38 240 kbps     00:03:20.166    37 119 kbps     00:03:15.161    150 155 bytes   390 574 bytes   00:00:25.692
STREAM DIAGNOSTICS:
File            PID             Type            Codec           Language                Seconds                 Bitrate                 Bytes           Packets
----            ---             ----            -----           --------                --------------          --------------          -------------   -----
00005.M2TS      4113 (0x1011)   0x1B            AVC                                     247,214                 36 011                  1 112 796 507   6 056 268
00005.M2TS      4352 (0x1100)   0x80            LPCM            eng (English)           247,214                 1 543                   47 676 548      296 742
00005.M2TS      4608 (0x1200)   0x90            PGS             fra (French)            247,214                 83                      2 563 867       14 426
00005.M2TS      4609 (0x1201)   0x90            PGS             deu (German)            247,214                 94                      2 902 505       16 260
00005.M2TS      4610 (0x1202)   0x90            PGS             spa (Spanish)           247,214                 82                      2 525 162       14 207
QUICK SUMMARY:
Disc Title: McGregor - Three Ballets (Chroma/Infra/Limen) 1080i Blu-ray AVC DTS-HD MA 5.1
Disc Size: 31 546 126 816 bytes
Protection: AACS
BD-Java: No
Playlist: 00002.MPLS
Size: 1 229 991 936 bytes
Length: 0:04:07
Total Bitrate: 39,79 Mbps
Video: MPEG-4 AVC Video / 36001 kbps / 1080i / 29,970 fps / 16:9 / High Profile 4.1
Audio: English / LPCM Audio / 2.0 / 48 kHz / 1536 kbps / 16-bit
Subtitle: French / 82,946 kbps
Subtitle: German / 93,902 kbps
Subtitle: Spanish / 81,694 kbps



Показать сообщения:    

Текущее время: 10-Дек 19:32

Часовой пояс: UTC + 3


Вы не можете начинать темы
Вы не можете отвечать на сообщения
Вы не можете редактировать свои сообщения
Вы не можете удалять свои сообщения
Вы не можете голосовать в опросах
Вы не можете прикреплять файлы к сообщениям
Вы не можете скачивать файлы