Хореография Баланчина (Меррилл Броквей, Эмиль Ардолино, Роберт Ирвинг, Михаил Барышников, Сьюзан Фаррелл, Мэрил Эшли) / Choreography by Balanchine (Brockway, Ardolino, Irving, Farrell, Ashley) [1977-1979, Ballet, DVDRip]


 

[Цитировать]

Хореография Баланчина
Choreography by Balanchine
Год выпуска: 1977-1979
Лейбл: Warner Music Vision
Страна-производитель: США
Жанр: Ballet
Продолжительность: 4 x ~ 00:54:00
Язык: Английский
Перевод: Не требуется
Субтитры: Нет
Режиссер/Хореограф: Меррилл Броквей, Эмиль Ардолино / Джордж Баланчин
Исполнители: Михаил Барышников, Сьюзан Фаррелл, Мэрил Эшли, Питер Мартинс, Карин фон Арольдинген, Патрисия Макбрайд
(Подробнее - см. вкладку "Содержание")
Описание: Балетная классика XX века. Джордж Баланчин (Георгий Мелитонович Баланчивадзе) одним из первых стал создавать балеты на музыку, не предназначенную для танца - сонаты, концерты, симфонии, сюжет в которых отсутствует. Он по праву считается основоположником неоклассического направления в мировой хореографии и отцом-основателем американского балета.

Содержание

Часть 1.
Tzigane /Цыгане/, музыка: Морис Равель
Исполнители: Сьюзан Фаррелл (Suzanne Farrell), Питер Мартинс (Peter Martins)
Andante from Divertimento No 15 /Анданте/, музыка: Вольфганг Амадей Моцарт
Исполнители: Мэрил Эшли (Merrill Ashley), Мария Калегари (Maria Calegari), Сюзан Пилар (Susan Pillarre), Стефани Саланд (Stephanie Saland), Марджори Спон (Marjorie Spohn), Трейси Беннет (Tracy Bennett), Виктор Гастелли (Victor Gastelli), Роберт Уэйсс (Robert Weiss)
The Four Temperaments /Четыре темперамента/, музыка: Пауль Хиндемит
Исполнители: Барт Кук (Bart Cook), Адам Людерс (Adam Luders), Коллин Ниэри (Colleen Neary), Мэрил Эшли (Merrill Ashley), Даниель Дуэл (Daniel Duell)
Часть 2.
Selections from Jewels. Emeralds /Драгоценности. Изумруды/, музыка: Габриэль Форе
Исполнители: Мэрил Эшли (Merrill Ashley), Герард Эбитс (Gerard Ebitz), Бонита Борн (Bonita Borne), Даниель Дуэл (Daniel Duell), Хитер Уоттс (Heather Watts), Карин фон Арольдинген (Karin von Aroldingen), Син Лэверу (Sean Lavery)
Diamonds /Бриллианты/, музыка: Пётр Чайковский
Исполнители: Сьюзан Фаррелл (Suzanne Farrell), Питер Мартинс (Peter Martins)
Stravinsky Violin Concerto /Скрипичный концерт Стравинского/, музыка: Игорь Стравинский
Исполнители: Кей Мэзо (Kay Mazzo), Карин фон Арольдинген (Karin von Aroldingen), Питер Мартинс (Peter Martins), Барт Кук (Bart Cook)
Часть 3.
Chaconne /Чакона/, музыка: Кристоф Виллибальд Глюк
Исполнители: Сьюзан Фаррелл (Suzanne Farrell), Питер Мартинс (Peter Martins)
Prodigal Son /Блудный сын/, балет в трёх картинах, сценарий: Борис Кохно, музыка: Сергей Прокофьев
Исполнители: Михаил Барышников, Карин фон Арольдинген (Karin von Aroldingen), Шон О'Брайен (Shaun O'Brien)
Часть 4.
Ballo Della Regina, музыка: Джузеппе Верди, из оперы «Дон Карлос»
Исполнители: Мэрил Эшли (Merrill Ashley), Роберт Уэйсс (Robert Weiss)
The Steadfast Tin Soldier /Стойкий оловянный солдатик/, музыка: Жорж Бизе
Исполнители: Михаил Барышников, Патрисия Макбрайд (Patricia McBride)
Elegie /Элегия/, музыка: Пётр Чайковский
Исполнители: Карин фон Арольдинген (Karin von Aroldingen), Син Лэверу (Sean Lavery)
Tchaikovsky Pas de Deux /Па-де-де Чайковского/, музыка: Пётр Чайковский
Исполнители: Михаил Барышников, Патрисия Макбрайд (Patricia McBride)
Качество видео: DVDRip
Формат/Контейнер: AVI
Видео кодек: XviD
Аудиокодек: AC3
Видео поток: MPEG-4 Visual, ~ 1500 Кбит/сек, 704 x 528 (1.333), 29.970 fps
Аудио поток: AC-3, 384 Кбит/сек, 2 канала, 48,0 КГц

MediaInfo

Общее
Полное имя : Choreography.by.Balanchine.(4.iz.4).1977-79.DVDRip\Choreography.by.Balanchine.(1.iz.4).1977.DVDRip.avi
Формат : AVI
Формат/Информация : Audio Video Interleave
Размер файла : 743 Мбайт
Продолжительность : 53 м.
Общий поток : 1939 Кбит/сек
Программа кодирования : VirtualDubMod 1.5.10.2 (build 2540/release)
Библиотека кодирования : VirtualDubMod build 2540/release
Видео
Идентификатор : 0
Формат : MPEG-4 Visual
Профиль формата : Advanced Simple@L5
Параметр BVOP формата : 2
Параметр QPel формата : Нет
Параметр GMC формата : Без точки перехода
Параметр матрицы формата : Default (MPEG)
Режим смешивания : Сжатый битовый поток
Идентификатор кодека : XVID
Идентификатор кодека/Подсказка : XviD
Продолжительность : 53 м.
Битрейт : 1545 Кбит/сек
Ширина : 704 пикс.
Высота : 528 пикс.
Соотношение сторон : 4:3
Частота кадров : 29,970 кадр/сек
Цветовое пространство : YUV
Подвыборка цветности : 4:2:0
Битовая глубина : 8 бит
Тип развёртки : Прогрессивная
Метод сжатия : С потерями
Бит/(Пиксели*Кадры) : 0.139
Размер потока : 592 Мбайт (80%)
Библиотека кодирования : XviD 1.2.1 (UTC 2008-12-04)
Аудио
Идентификатор : 1
Формат : AC-3
Формат/Информация : Audio Coding 3
Расширение режима : CM (complete main)
Идентификатор кодека : 2000
Продолжительность : 53 м.
Вид битрейта : Постоянный
Битрейт : 384 Кбит/сек
Каналы : 2 канала
Расположение каналов : Front: L R
Частота : 48,0 КГц
Битовая глубина : 16 бит
Метод сжатия : С потерями
Размер потока : 147 Мбайт (20%)
Выравнивание : Соединение по промежуткам
Продолжительность промежутка : 33 мс. (1,00 видеокадр)
Время предзагрузки промежутка : 512 ms
Общее
Полное имя : Choreography.by.Balanchine.(4.iz.4).1977-79.DVDRip\Choreography.by.Balanchine.(2.iz.4).1977.DVDRip.avi
Формат : AVI
Формат/Информация : Audio Video Interleave
Размер файла : 744 Мбайт
Продолжительность : 55 м.
Общий поток : 1859 Кбит/сек
Программа кодирования : VirtualDubMod 1.5.10.2 (build 2540/release)
Библиотека кодирования : VirtualDubMod build 2540/release
Видео
Идентификатор : 0
Формат : MPEG-4 Visual
Профиль формата : Advanced Simple@L5
Параметр BVOP формата : 2
Параметр QPel формата : Нет
Параметр GMC формата : Без точки перехода
Параметр матрицы формата : Default (MPEG)
Режим смешивания : Сжатый битовый поток
Идентификатор кодека : XVID
Идентификатор кодека/Подсказка : XviD
Продолжительность : 55 м.
Битрейт : 1464 Кбит/сек
Ширина : 704 пикс.
Высота : 528 пикс.
Соотношение сторон : 4:3
Частота кадров : 29,970 кадр/сек
Цветовое пространство : YUV
Подвыборка цветности : 4:2:0
Битовая глубина : 8 бит
Тип развёртки : Прогрессивная
Метод сжатия : С потерями
Бит/(Пиксели*Кадры) : 0.131
Размер потока : 586 Мбайт (79%)
Библиотека кодирования : XviD 1.2.1 (UTC 2008-12-04)
Аудио
Идентификатор : 1
Формат : AC-3
Формат/Информация : Audio Coding 3
Расширение режима : CM (complete main)
Идентификатор кодека : 2000
Продолжительность : 55 м.
Вид битрейта : Постоянный
Битрейт : 384 Кбит/сек
Каналы : 2 канала
Расположение каналов : Front: L R
Частота : 48,0 КГц
Битовая глубина : 16 бит
Метод сжатия : С потерями
Размер потока : 154 Мбайт (21%)
Выравнивание : Соединение по промежуткам
Продолжительность промежутка : 33 мс. (1,00 видеокадр)
Время предзагрузки промежутка : 512 ms
Общее
Полное имя : Choreography.by.Balanchine.(4.iz.4).1977-79.DVDRip\Choreography.by.Balanchine.(3.iz.4).1978.DVDRip.avi
Формат : AVI
Формат/Информация : Audio Video Interleave
Размер файла : 744 Мбайт
Продолжительность : 56 м.
Общий поток : 1837 Кбит/сек
Программа кодирования : VirtualDubMod 1.5.10.2 (build 2540/release)
Библиотека кодирования : VirtualDubMod build 2540/release
Видео
Идентификатор : 0
Формат : MPEG-4 Visual
Профиль формата : Advanced Simple@L5
Параметр BVOP формата : 2
Параметр QPel формата : Нет
Параметр GMC формата : Без точки перехода
Параметр матрицы формата : Default (MPEG)
Режим смешивания : Сжатый битовый поток
Идентификатор кодека : XVID
Идентификатор кодека/Подсказка : XviD
Продолжительность : 56 м.
Битрейт : 1442 Кбит/сек
Ширина : 704 пикс.
Высота : 528 пикс.
Соотношение сторон : 4:3
Частота кадров : 29,970 кадр/сек
Цветовое пространство : YUV
Подвыборка цветности : 4:2:0
Битовая глубина : 8 бит
Тип развёртки : Прогрессивная
Метод сжатия : С потерями
Бит/(Пиксели*Кадры) : 0.129
Размер потока : 584 Мбайт (78%)
Библиотека кодирования : XviD 1.2.1 (UTC 2008-12-04)
Аудио
Идентификатор : 1
Формат : AC-3
Формат/Информация : Audio Coding 3
Расширение режима : CM (complete main)
Идентификатор кодека : 2000
Продолжительность : 56 м.
Вид битрейта : Постоянный
Битрейт : 384 Кбит/сек
Каналы : 2 канала
Расположение каналов : Front: L R
Частота : 48,0 КГц
Битовая глубина : 16 бит
Метод сжатия : С потерями
Размер потока : 156 Мбайт (21%)
Выравнивание : Соединение по промежуткам
Продолжительность промежутка : 33 мс. (1,00 видеокадр)
Время предзагрузки промежутка : 512 ms
Общее
Полное имя : Choreography.by.Balanchine.(4.iz.4).1977-79.DVDRip\Choreography.by.Balanchine.(4.iz.4).1979.DVDRip.avi
Формат : AVI
Формат/Информация : Audio Video Interleave
Размер файла : 744 Мбайт
Продолжительность : 50 м.
Общий поток : 2066 Кбит/сек
Программа кодирования : VirtualDubMod 1.5.10.2 (build 2540/release)
Библиотека кодирования : VirtualDubMod build 2540/release
Видео
Идентификатор : 0
Формат : MPEG-4 Visual
Профиль формата : Advanced Simple@L5
Параметр BVOP формата : 2
Параметр QPel формата : Нет
Параметр GMC формата : Без точки перехода
Параметр матрицы формата : Default (MPEG)
Режим смешивания : Сжатый битовый поток
Идентификатор кодека : XVID
Идентификатор кодека/Подсказка : XviD
Продолжительность : 50 м.
Битрейт : 1671 Кбит/сек
Ширина : 704 пикс.
Высота : 528 пикс.
Соотношение сторон : 4:3
Частота кадров : 29,970 кадр/сек
Цветовое пространство : YUV
Подвыборка цветности : 4:2:0
Битовая глубина : 8 бит
Тип развёртки : Прогрессивная
Метод сжатия : С потерями
Бит/(Пиксели*Кадры) : 0.150
Размер потока : 601 Мбайт (81%)
Библиотека кодирования : XviD 1.2.1 (UTC 2008-12-04)
Аудио
Идентификатор : 1
Формат : AC-3
Формат/Информация : Audio Coding 3
Расширение режима : CM (complete main)
Идентификатор кодека : 2000
Продолжительность : 50 м.
Вид битрейта : Постоянный
Битрейт : 384 Кбит/сек
Каналы : 2 канала
Расположение каналов : Front: L R
Частота : 48,0 КГц
Битовая глубина : 16 бит
Метод сжатия : С потерями
Размер потока : 138 Мбайт (19%)
Выравнивание : Соединение по промежуткам
Продолжительность промежутка : 33 мс. (1,00 видеокадр)
Время предзагрузки промежутка : 512 ms

Скриншоты




Показать сообщения:    

Текущее время: 11-Дек 09:06

Часовой пояс: UTC + 3


Вы не можете начинать темы
Вы не можете отвечать на сообщения
Вы не можете редактировать свои сообщения
Вы не можете удалять свои сообщения
Вы не можете голосовать в опросах
Вы не можете прикреплять файлы к сообщениям
Вы не можете скачивать файлы