Петр Чайковский - Лебединое Озеро (Энди Соммер, Хайнц Шперли, Владимир Федосеев) / Swan Lake (Andy Sommer, Heinz Spoerli) [2009, Ballet, BDRip 720p]


 

[Цитировать]

Петр Чайковский - Лебединое озеро
Swan Lake
Год выпуска: 2009
Лейбл: BelAir
Страна-производитель: Швейцария
Жанр: Ballet
Продолжительность: 02:10:30
Язык: Французский
Перевод: Не требуется
Субтитры: Нет
Балет и оркестр: Цюрихского оперного театра
Дирижер: Владимир Федосеев
Режиссер/Хореограф: Энди Соммер (Andy Sommer) / Хайнц Шпёрли (Heinz Spoerli)
Исполнители:
Одетта / Одилия - Полина Семионова
Зигфрид - Станислав Ермаков
Ротбарт, злой волшебник - Арсен Мехрабян
Королева - Карин Пеллмонт (Karin Pellmont)

Описание: За дирижёрским пультом – Владимир Федосеев. Вот его мнение в одном из интервью о работе в театре и балетмейстере Шпёрли: «Я поставил в Цюрихском театре оперы и балета много опер – «Евгений Онегин», «Пиковая дама», «Царская невеста», «Катерина Измайлова», - говорит Владимир Иванович. - Ещё я там дирижирую «Золушкой», «Лебединым озером», а также балетом на музыку Пятой симфонии Малера. Мне нравится хореография Хайнца Шпёрли: он талантливый балетмейстер, новатор, модернист. Я бы назвал его и замечательным музыкантом: он хорошо знает, тонко чувствует и талантливо интерпретирует партитуры».
В основе сюжета балета – старинная немецкая легенда о прекрасной принцессе Одетте, превращённой в лебедя колдуном Ротбартом. Первая постановка на музыку Чайковского была создана Юлиусом Резингером на либретто Владимира Бегичева и, возможно, Василия Гельцера. Мнения об источнике вдохновения Петра Ильича расходятся. В Германии прочно верят, что композитор написал музыку под впечатлением от озера, находящегося в предгорьях Альп недалеко от города Фюссен. В России принято считать, что прообразом для балета стал либо Воткинский заводской пруд, на который выходили окна дома Чайковского, либо небольшой прудик возле Новодевичьего монастыря в Москве.
С тех пор этот балет ставился тысячи раз на сотнях сцен мира, однако по сей день большинство балетных трупп предпочитаю версию, созданную Мариусом Петипа и Львом Ивановым для Императорского балетного театра и впервые представленную публике 15 января 1895 года в Мариинском театре Санкт-Петербурга. Специально для этой постановки оригинальная партитура Петра Ильича Чайковского была откорректирована тогдашним главным дирижёром Императорского театра итальянцем Рикардо Дриго. Нет такой балерины и такого танцовщика, которые не мечтали бы побывать в образе Одетты-Одилии и Принца. Среди множества исполнителей 20 века в историю мирового балета, безусловно, вошли, по крайней мере, два потрясающих дуэта: Майя Плисецкая и Николай Фадеечев и Марго Фонтейн и Рудольф Нуриев. Перед вами ещё одна версия бессмертного произведения Чайковского. Её автор – главный хореограф Цюрихского оперного театра Хайнц Шпёрли, за дирижёрским пультом Владимир Иванович Федосеев, а в главных партиях выступят Полина Семёнова и Станислав Ермаков. Так что, как ни крути, постановка всё же больше «наша», чем швейцарская.
Два слова об исполнителях. Полина Семёнова закончила балетное училище при Большом театре и прославилась тем, что стала первой россиянкой, получившей в Германии премию Дафны. Эта премия Союза берлинских любителей театра, присуждаемая с 1976 года дебютантам, была вручена ей в 2005 году в Берлинском государственном оперном театре «Унтер-ден-Линден». А до торжественной церемонии 20-летняя Полина исполнила партию Никки в балете «Баядерка». В 2006 году, по приглашению хореографа Владимира Малахова, она переехала в Берлин и стала солисткой нового Государственного балета, возникшего из слияния танцевальных трупп трёх столичных театров. В Швейцарии Полина Семёнова выступит впервые, зато её партнер, уроженец Таллина Станислав Ермаков – почти гельвет. Он вошёл в труппу Цюрихского оперного театра в сезоне 1997/98 годов и с тех пор выступает в ведущих партиях в таких балетах, как «Щелкунчик», «Копеллия», «Золушка» и, конечно, «Лебединое озеро».
Премьера балета состоялась в Большом театре 4 марта 1877 года, а первой исполнительницей партии, ставшей эталоном хореографического искусства, была практически забытая сегодня балерина Полина Карпакова.
«Лебединое озеро» - это наше всё - символ русского балета!

Релиз: skryabin
Качество видео: BDRip (720p)
Формат/Контейнер: MKV
Видео кодек: x264
Аудиокодек: AC3, DTS
Видео поток: AVC, 4154 Кбит/сек, 1280 x 720 (1.778), 29.970 fps
Аудио поток 1: AC-3, 640 Кбит/сек, 6 каналов, 48,0 КГц
Аудио поток 2: DTS, 1510 Кбит/сек, 6 каналов, 48,0 КГц (отдельным файлом)

Инфо-файл

http://freetexthost.com/uathgcbsxo
Общее
Уникальный идентификатор : 189891149416288524621799381297691754618 (0x8EDBB4805A140B9FB3548E222E16007A)
Полное имя : Swan.Lake.2009.BDRip.720p\Swan.Lake.2009.BDRip.720p.mkv
Формат : Matroska
Размер файла : 4,37 Гбайт
Продолжительность : 2 ч. 10 м.
Общий поток : 4797 Кбит/сек
Дата кодирования : UTC 2011-03-04 14:21:49
Программа кодирования : mkvmerge v3.4.0 ('Rapunzel') сборка от May 15 2010 09:38:20
Библиотека кодирования : libebml v0.8.0 + libmatroska v0.9.0
Видео
Идентификатор : 1
Формат : AVC
Формат/Информация : Advanced Video Codec
Профиль формата : High@L4.1
Параметр CABAC формата : Да
Параметр ReFrames формата : 8 кадров
Идентификатор кодека : V_MPEG4/ISO/AVC
Продолжительность : 2 ч. 10 м.
Битрейт : 4154 Кбит/сек
Ширина : 1280 пикс.
Высота : 720 пикс.
Соотношение сторон : 16:9
Частота кадров : 29,970 кадр/сек
Цветовое пространство : YUV
Подвыборка цветности : 4:2:0
Битовая глубина : 8 бит
Тип развёртки : Прогрессивная
Бит/(Пиксели*Кадры) : 0.150
Размер потока : 3,70 Гбайт (85%)
Заголовок : Tchaikovsky: Swan Lake (2009) BDRip 720p
Библиотека кодирования : x264 core 112 r1867 22bfd31
Настройки программы : cabac=1 / ref=8 / deblock=1:-3:-3 / analyse=0x3:0x133 / me=umh / subme=9 / psy=1 / psy_rd=1.00:0.00 / mixed_ref=1 / me_range=16 / chroma_me=1 / trellis=2 / 8x8dct=1 / cqm=0 / deadzone=21,11 / fast_pskip=1 / chroma_qp_offset=-2 / threads=12 / sliced_threads=0 / nr=0 / decimate=1 / interlaced=0 / constrained_intra=0 / bframes=4 / b_pyramid=2 / b_adapt=2 / b_bias=0 / direct=3 / weightb=1 / open_gop=0 / weightp=2 / keyint=250 / keyint_min=25 / scenecut=40 / intra_refresh=0 / rc_lookahead=40 / rc=2pass / mbtree=1 / bitrate=4154 / ratetol=1.0 / qcomp=0.60 / qpmin=0 / qpmax=51 / qpstep=4 / cplxblur=20.0 / qblur=0.5 / vbv_maxrate=50000 / vbv_bufsize=50000 / nal_hrd=none / ip_ratio=1.40 / aq=1:1.00
Язык : German
Аудио
Идентификатор : 2
Формат : AC-3
Формат/Информация : Audio Coding 3
Расширение режима : CM (complete main)
Идентификатор кодека : A_AC3
Продолжительность : 2 ч. 10 м.
Вид битрейта : Постоянный
Битрейт : 640 Кбит/сек
Каналы : 6 каналов
Расположение каналов : Front: L C R, Side: L R, LFE
Частота : 48,0 КГц
Битовая глубина : 16 бит
Метод сжатия : С потерями
Размер потока : 597 Мбайт (13%)
Заголовок : AC3 5.1 ch, 640 kbps
Общее
Полное имя : Swan.Lake.2009.BDRip.720p\Swan.Lake.2009.BDRip.720p.dts
Формат : DTS
Формат/Информация : Digital Theater Systems
Размер файла : 1,38 Гбайт
Продолжительность : 2 ч. 10 м.
Общий поток : 1510 Кбит/сек
Аудио
Формат : DTS
Формат/Информация : Digital Theater Systems
Продолжительность : 2 ч. 10 м.
Вид битрейта : Постоянный
Битрейт : 1510 Кбит/сек
Каналы : 6 каналов
Расположение каналов : Front: L C R, Side: L R, LFE
Частота : 48,0 КГц
Битовая глубина : 16 бит
Метод сжатия : С потерями
Размер потока : 1,38 Гбайт (100%)

Скриншоты




Показать сообщения:    

Текущее время: 09-Дек 18:33

Часовой пояс: UTC + 3


Вы не можете начинать темы
Вы не можете отвечать на сообщения
Вы не можете редактировать свои сообщения
Вы не можете удалять свои сообщения
Вы не можете голосовать в опросах
Вы не можете прикреплять файлы к сообщениям
Вы не можете скачивать файлы