Пётр Чайковский - Спящая красавица (Кристофер Карр, Моника Мейсон, Валерий Овсянников, Алина Кожокару, Федерико Бонелли, Кристофер Саундерс) / The Sleeping Beauty (Carr, Mason, Cojocaru, Bonelli, Saunders) [2006, Ballet, DVDRip]


 

[Цитировать]

Пётр Чайковский - Спящая красавица
The Sleeping Beauty
Год выпуска: 2006
Лейбл: Opus Arte
Страна-производитель: Великобритания
Жанр: Ballet
Продолжительность: 02:12:28
Язык: Английский
Перевод: Не требуется
Субтитры: Нет
Балет и оркестр: Королевского оперного театра
Дирижер: Валерий Овсянников
Режиссер/Хореограф: Кристофер Карр, Моника Мейсон
Исполнители:
Король Флорестан XXIV - Кристофер Саундерс (Chrisropher Saunders)
Королева - Элизабет Макгориан (Elizabeth McGorian)
Принцесса Аврора, их дочь - Алина Кожокару (Alina Cojocaru)
Принц Шарман - Федерико Бонелли (Federico Bonelli)
Каталабют, старший дворецкий короля Флорестана - Аластаир Мэрриот (Alastair Marriott)
Фея Сирени - Марианела Нуньес ( Marianela Nunez)
Фея Флер де Фарин (фея цветущих колосьев) - Мара Галеацци (Mara Galeazzi)
Фея Канареек - Наташа Оугтред (Natasha Oughtred)

Описание: «Спящая красавица» — балет Петра Ильича Чайковского на либретто Ивана Всеволожского и Мариуса Петипа по сюжету одноимённой сказки Шарля Перро; состоит из трёх действий, пролога и апофеоза. Написан в 1889, представлен публике в 1890. До Чайковского к тому же самому сюжету обращался французский композитор Фердинанд Герольд, тоже сочинив балет с таким же названием (буквально: Спящая красавица леса — La Belle au bois dormant) по либретто Эжена Скриба. Этот балет впервые прошёл на сцене Парижской Оперы 27 августа 1829 в постановке балетмейстера Жана-Пьера Омера с участием Марии Тальони, Лиз Нобле и др. Новая версия Чайковского и Петипа была признана выдающейся и балет занял место среди мировых шедевров балетного искусства. Главные действующие лица балета: король Флорестан, королева, принцесса Аврора; семь фей: Сирень, Кандид (Искренность), Флёр-де-Фарин (Цветущие колосья), Хлебная Крошка, Канарейка, Виолант (Страсть) и злая Карабосс; принц Дезире. Наиболее известный номер балета — вальс из I акта.
Постановка данной версии была во многом пропитана первоисточником, т.к режиссёр всё же не отошёл от неё, а лишь подчеркнул важность сохранения истинной хореографии, привнеся в неё много нового из своего личного опыта. Балет действительно удался и несмотря на то, что обычно беря исторический матрериал, заграницей его переделывают до неузнаваемости. Но «Спящая красавица» театра Англии редкое тому исключение.

Качество видео: DVDRip
Формат/Контейнер: AVI
Видео кодек: XviD
Аудио кодек: AC3
Видео поток: MPEG-4 Visual, 1896 Кбит/сек, 704 x 400 (1.760), 29.970 fps
Аудио поток: AC-3, 448 Кбит/сек, 6 каналов, 48,0 КГц

MediaInfo

Общее
Полное имя : Spyaschaya.krasavitsa.2006.DVDRip.avi
Формат : AVI
Формат/Информация : Audio Video Interleave
Профиль формата : OpenDML
Размер файла : 2,18 Гбайт
Продолжительность : 2 ч. 12 м.
Общий поток : 2359 Кбит/сек
Программа кодирования : VirtualDubMod 1.5.10.2 (build 2540/release)
Библиотека кодирования : VirtualDubMod build 2540/release
Видео
Идентификатор : 0
Формат : MPEG-4 Visual
Профиль формата : Advanced Simple@L5
Параметр BVOP формата : 3
Параметр QPel формата : Нет
Параметр GMC формата : Без точки перехода
Параметр матрицы формата : Default (MPEG)
Режим смешивания : Сжатый битовый поток
Идентификатор кодека : XVID
Идентификатор кодека/Подсказка : XviD
Продолжительность : 2 ч. 12 м.
Битрейт : 1896 Кбит/сек
Ширина : 704 пикс.
Высота : 400 пикс.
Соотношение сторон : 16:9
Частота кадров : 29,970 кадр/сек
Цветовое пространство : YUV
Подвыборка цветности : 4:2:0
Битовая глубина : 8 бит
Тип развёртки : Прогрессивная
Метод сжатия : С потерями
Бит/(Пиксели*Кадры) : 0.225
Размер потока : 1,75 Гбайт (80%)
Библиотека кодирования : XviD 1.2.1 (UTC 2008-12-04)
Аудио
Идентификатор : 1
Формат : AC-3
Формат/Информация : Audio Coding 3
Расширение режима : CM (complete main)
Идентификатор кодека : 2000
Продолжительность : 2 ч. 12 м.
Вид битрейта : Постоянный
Битрейт : 448 Кбит/сек
Каналы : 6 каналов
Расположение каналов : Front: L C R, Side: L R, LFE
Частота : 48,0 КГц
Битовая глубина : 16 бит
Метод сжатия : С потерями
Размер потока : 424 Мбайт (19%)
Выравнивание : Соединение по промежуткам
Продолжительность промежутка : 33 мс. (1,00 видеокадр)
Время предзагрузки промежутка : 512 ms

Скриншоты




Показать сообщения:    

Текущее время: 08-Дек 14:58

Часовой пояс: UTC + 3


Вы не можете начинать темы
Вы не можете отвечать на сообщения
Вы не можете редактировать свои сообщения
Вы не можете удалять свои сообщения
Вы не можете голосовать в опросах
Вы не можете прикреплять файлы к сообщениям
Вы не можете скачивать файлы