Феликс Мендельсон - Мечта (Фредерик Аштон) / Felix Mendelssohn (Ein Sommernachtstraum) - The Dream (Frederick Ashton) (Alessandra Ferri, Ethan Stiefel, Herman Cornejo) [2004, Ballet, SATRip]


 

[Цитировать]

Мечта / The Dream
Год выпуска: 2004
Страна-производитель: Великобритания
Жанр: Ballet
Продолжительность: 00:52:22
Перевод: не требуется
Субтитры: нет
Музыка: Феликс Мендельсон (Felix Mendelssohn)
Исполнители музыки: Pacific Symphony Orchestra
Дирижер: Ormsby Wilkins.
Режиссер/Хореограф: Фредерик Аштон / Frederick Ashton
Исполнители: Alessandra Ferri, Ethan Stiefel, Herman Cornejo,
American Ballet Theatre
Описание: В этой постановке Аштон уплотняет произведение "Сон в летнюю ночь" и сводит его только к лесным сценам, сосредотачиваясь на волшебном короле фей и эльфов Обероне и его супруге Титании, афинских ремесленниках и крестьянах, которые натыкаются на залитую лунным светом волшебную ночь.
Изящно откалиброванная хореография имеет характерный признак Аштона - точность, легкость, беглость.
Доп. информация: "Мечта" была вкладом Аштона в британское празднование 400-ой годовщины со дня рождения Шекспира.
Запись с MEZZO.
Сэмпл: http://multi-up.com/490923
Качество видео: SATRip
Формат/Контейнер: AVI
Видео кодек: XviD
Аудио кодек: MP3
Видео поток: Xvid 640x384 25.00fps 2350kbps [Video 0]
Аудио поток: MPEG Audio Layer 3 48000Hz stereo 256kbps [Audio 1]

MediaInfo

Format : AVI
Format/Info : Audio Video Interleave
File size : 979 MiB
Duration : 52mn 22s
Overall bit rate : 2 614 Kbps
Writing application : VirtualDubMod 1.5.4.1 (build 2178/release)
Writing library : VirtualDubMod build 2178/release
Video
ID : 0
Format : MPEG-4 Visual
Format profile : Advanced Simple@L5
Format settings, BVOP : No
Format settings, QPel : No
Format settings, GMC : No warppoints
Format settings, Matrix : Custom
Codec ID : XVID
Codec ID/Hint : XviD
Duration : 52mn 22s
Bit rate : 2 350 Kbps
Width : 640 pixels
Height : 384 pixels
Display aspect ratio : 1.667
Frame rate : 25.000 fps
Color space : YUV
Chroma subsampling : 4:2:0
Bit depth : 8 bits
Scan type : Progressive
Bits/(Pixel*Frame) : 0.383
Stream size : 880 MiB (90%)
Writing library : XviD 1.2.0.dev47 (UTC 2006-11-01)
Audio
ID : 1
Format : MPEG Audio
Format version : Version 1
Format profile : Layer 3
Mode : Joint stereo
Codec ID : 55
Codec ID/Hint : MP3
Duration : 52mn 22s
Bit rate mode : Constant
Bit rate : 256 Kbps
Channel(s) : 2 channels
Sampling rate : 48.0 KHz
Video delay : 72ms
Stream size : 95.9 MiB (10%)
Alignment : Aligned on interleaves
Interleave, duration : 80 ms (2.00 video frames)
Interleave, preload duration : 504 ms
Writing library : LAME3.97
Encoding settings : -m j -V 4 -q 2 -lowpass 19.7

Скриншоты




Показать сообщения:    

Текущее время: 09-Дек 12:46

Часовой пояс: UTC + 3


Вы не можете начинать темы
Вы не можете отвечать на сообщения
Вы не можете редактировать свои сообщения
Вы не можете удалять свои сообщения
Вы не можете голосовать в опросах
Вы не можете прикреплять файлы к сообщениям
Вы не можете скачивать файлы