П.И.Чайковский - Щелкунчик (Mарк Моррис) / P.I.Tchaikovsky - The hard nut (Mark Morris) (Clarice Marshall, Marianne Moore) [1993, Modern ballet, DVDRip]


 

[Цитировать]

Щелкунчик / The hard nut
Год выпуска: 1993
Страна-производитель: Бельгия
Жанр: Modern ballet
Продолжительность: 01:26:30
Язык: английский
Перевод: не требуется
Субтитры: нет
Режиссер/Хореограф: Mарк Моррис / Mark Morris
Исполнители:
Мари – Clarice Marshall
Фриц – Marianne Moore
Луиза/принцесса Пирлипат – Tina Fehlandt
Др.Штальбаум/Король – Barry Alterman
Мс.Штальбаум/Королева – Peter Wing Healey
Домохозяйка/Няня – Kraig Patterson
Дроссельмейер – Rob Besserer
Щелкунчик/молодой Дроссельмейер – Jean-Guillaume Weis
Композитор: П.И.Чайковский/P.I.Tchaikovsky
Исполнители музыки: Symphony orchestra and chorus of the Theatre Royal de la Monnaie
Musical director Sylvain Cambrelling
Описание:
По мотивам сказки Гофмана "Щелкунчик и мышиный король". Именно к сказке Гофмана и вернулся Марк Моррис — он убежден, что она куда страшнее и сильнее, чем либретто. Для оформления спектакля Моррис обратился к знаменитому автору "ужасных" комиксов Чарлзу Бернсу (Charles Burnes).
Классический сюжет перенесен в Америку 1960-х годов: пластиковая елка, пластиковая мебель, рок-н-ролл, негры, арабы, наркотики...
Вместо обычных 35 исполнителей в балете Морриса всего 16. Партитура же Чайковского сохранена полностью.
Доп. информация: Премьера - 12 января 1991 Theater Royal-де-ла-Monnaie , Брюссель, Бельгия
Cэмпл http://multi-up.com/487349
Качество видео: DVDRip
Формат/Контейнер: AVI
Видео кодек: XviD
Аудио кодек: MP3
Видео поток: Xvid 720x544 29.97fps 2165kbps [Video 0]
Аудио поток: MPEG Audio Layer 3 48000Hz stereo 192kbps [Audio 1]

MediaInfo

Format : AVI
Format/Info : Audio Video Interleave
File size : 1.43 GiB
Duration : 1h 26mn
Overall bit rate : 2 365 Kbps
Writing application : VirtualDubMod 1.5.4.1 (build 2178/release)
Writing library : VirtualDubMod build 2178/release
Video
ID : 0
Format : MPEG-4 Visual
Format profile : Advanced Simple@L5
Format settings, BVOP : Yes
Format settings, QPel : No
Format settings, GMC : No warppoints
Format settings, Matrix : Custom
Codec ID : XVID
Codec ID/Hint : XviD
Duration : 1h 26mn
Bit rate : 2 166 Kbps
Width : 720 pixels
Height : 544 pixels
Display aspect ratio : 4:3
Frame rate : 29.970 fps
Color space : YUV
Chroma subsampling : 4:2:0
Bit depth : 8 bits
Scan type : Progressive
Bits/(Pixel*Frame) : 0.185
Stream size : 1.31 GiB (92%)
Writing library : XviD 1.1.2 (UTC 2006-11-01)
Audio
ID : 1
Format : MPEG Audio
Format version : Version 1
Format profile : Layer 3
Mode : Joint stereo
Mode extension : MS Stereo
Codec ID : 55
Codec ID/Hint : MP3
Duration : 1h 25mn
Bit rate mode : Constant
Bit rate : 192 Kbps
Channel(s) : 2 channels
Sampling rate : 48.0 KHz
Stream size : 118 MiB (8%)
Alignment : Aligned on interleaves
Interleave, duration : 67 ms (2.02 video frames)
Interleave, preload duration : 504 ms
Writing library : LAME3.97
Encoding settings : -m j -V 4 -q 2 -lowpass 18.6 -b 192

Скриншоты




Показать сообщения:    

Текущее время: 18-Янв 02:33

Часовой пояс: UTC + 3


Вы не можете начинать темы
Вы не можете отвечать на сообщения
Вы не можете редактировать свои сообщения
Вы не можете удалять свои сообщения
Вы не можете голосовать в опросах
Вы не можете прикреплять файлы к сообщениям
Вы не можете скачивать файлы