Тревога - Бланка Ли / Alarme - Blanca Li [2004, Modern Ballet, SATRip]


 

[Цитировать]

Тревога / Alarme
Год выпуска: 2004
Страна-производитель: Франция
Жанр: Mодерн-балет
Продолжительность: 00:57:51
Перевод: не нужен
Режиссер/Хореограф: Бланка Ли / Blanca Li
Музыкальное сопровождение: фонограмма
Исполнители:
Stephaniу Andrieu, Geraldine Fournier, Marjorie Hannoteaux, Emmanuelle Huybrechts, Pascale Peladan, Cyril Lot, Bruno Pere, Raphael Rodriguez
Описание:
Балет «Тревога». премьера которого состоялась 19 сентября 2004, это коллекция коротких эпизодов для восьми танцоров. Своеобразный коллаж различных чувств и эмоций из нашей жизни.
Запись с MEZZO.
Доп. информация:
Представлены сюжеты, утверждающие, что жизнь это... фильм:
1. Alarm, музыка Francois-Eedes Chanfreault
2. Electron, музыка Tao Gutierrez
3. Doble Paso, музыка Tao Gutierrez, W.A.Mozart в интерпретации Florence Foster Jenkins
4. Promenad, музыка Francois-Eedes Chanfreault, Tao Gutierrez
5. Game Over, музыка Francois-Eedes Chanfreault
Файл скачан по ссылкам T-portal
Cэмпл http://multi-up.com/469456
Качество видео: SATRip
Формат/Контейнер: AVI
Видео кодек: DivX
Аудио кодек: MP3
Видео поток: DivX 5 720x528 25.00fps 994kbps [Video 0]
Аудио поток: MPEG Audio Layer 3 44100Hz stereo 127kbps [Audio 1]

MediaInfo

Format : AVI
Format/Info : Audio Video Interleave
File size : 469 MiB
Duration : 57mn 51s
Overall bit rate : 1 132 Kbps
Writing application : VirtualDubModRus 1.5.10.2 (build 2540/release)
Writing library : VirtualDubMod build 2540/release
Video
ID : 0
Format : MPEG-4 Visual
Format settings, BVOP : Yes
Format settings, QPel : No
Format settings, GMC : No warppoints
Format settings, Matrix : Default (H.263)
Muxing mode : Packed bitstream
Codec ID : DX50
Codec ID/Hint : DivX 5
Duration : 57mn 51s
Bit rate : 995 Kbps
Width : 720 pixels
Height : 528 pixels
Display aspect ratio : 4:3
Frame rate : 25.000 fps
Color space : YUV
Chroma subsampling : 4:2:0
Bit depth : 8 bits
Scan type : Progressive
Bits/(Pixel*Frame) : 0.105
Stream size : 412 MiB (88%)
Writing library : DivX 5.2.1 Alpha (UTC 2004-09-08)
Audio
ID : 1
Format : MPEG Audio
Format version : Version 1
Format profile : Layer 3
Mode : Joint stereo
Mode extension : MS Stereo
Codec ID : 55
Codec ID/Hint : MP3
Duration : 57mn 51s
Bit rate mode : Constant
Bit rate : 128 Kbps
Channel(s) : 2 channels
Sampling rate : 44.1 KHz
Stream size : 52.9 MiB (11%)
Alignment : Aligned on interleaves
Interleave, duration : 40 ms (1.00 video frame)
Interleave, preload duration : 522 ms

Скриншоты




Показать сообщения:    

Текущее время: 04-Дек 02:50

Часовой пояс: UTC + 3


Вы не можете начинать темы
Вы не можете отвечать на сообщения
Вы не можете редактировать свои сообщения
Вы не можете удалять свои сообщения
Вы не можете голосовать в опросах
Вы не можете прикреплять файлы к сообщениям
Вы не можете скачивать файлы