Дмитрий Шостакович - Барышня и хулиган (Аполлинарий Дудко, Константин Боярский, Максим Шостакович, Ирина Колпакова, Алексей Носков) [1970, Ballet, VHSRip]


 

[Цитировать]

Дмитрий Шостакович - Барышня и хулиган Год выпуска: 1970
Лейбл: Ленфильм
Страна-производитель: СССР
Жанр: Фильм-балет
Продолжительность: 01:01:33
Язык: Русский
Балет: Ленинградского Академического Малого театра оперы и балета
Оркестр: Ленинградской филармонии
Дирижер: Максим Шостакович
Режиссер/Хореограф: Аполлинарий Дудко / Константин Боярский
Роли исполняют:
Учительница - Ирина Колпакова
Хулиган - Алексей Носков
Атаман - Святослав Кузнецов
Подруга атамана - Валентина Муханова

Описание: Фильм-балет Дмитрия Шостаковича по мотивам сценария Владимира Маяковского, написанного в 1918 году, ремейк одноимённого фильма 1918 года. Фильм рассказывает историю местного хулигана и приехавшей учительницы. Учительница начинает работать в школе. Хулиган влюбляется в учительницу и начинает посещать её занятия. Однажды какой-то ученик-злодей обижает учительницу, а влюблённый хулиган вступается за неё. Но эта помощь выходит парню боком — в тёмном переулке его подстерегает отец злодея вместе со своими дружками — в драке хулиган смертельно ранен и через некоторое время умирает...

Постановка

Автор сценария: Аполлинарий Дудко и Владимир Маяковский
Режиссёр: Аполлинарий Дудко
Сценическая композиция и хореография: Константин Боярский
Композитор: Дмитрий Шостакович
Оператор: Эдуард Розовский
Художник-постановщик: Марина Азизян
Монтаж: Изольда Головко
Звукорежиссёр: Владимир Яковлев
В фильме принимают участие:
Ансамбль пантомимы, художественный руководстводитель: Григур (Григорий Гуревич)
Ансамбль скрипачей, художественный руководстводитель: Илья Шпильберг
Соло скрипки: Лев Шиндер
Соло виолончели: Георгий Гиновкер
Качество видео: VHSRip
Формат/Контейнер: AVI
Видео кодек: XviD
Аудио кодек: AC3
Видео поток: MPEG-4 Visual, 1798 Кбит/сек, 704 x 528 (1.333), 25.000 fps
Аудио поток: AC-3, 192 Кбит/сек, 2 канала, 48,0 КГц

MediaInfo

Общее
Полное имя : Barishnya.i.Khuligan.1970.VHSRip.avi
Формат : AVI
Формат/Информация : Audio Video Interleave
Размер файла : 880 Мбайт
Продолжительность : 1 ч. 1 м.
Общий поток : 2000 Кбит/сек
Программа кодирования : VirtualDubMod 1.5.10.2 (build 2540/release)
Библиотека кодирования : VirtualDubMod build 2540/release
Видео
Идентификатор : 0
Формат : MPEG-4 Visual
Профиль формата : Advanced Simple@L5
Параметр BVOP формата : 3
Параметр QPel формата : Нет
Параметр GMC формата : Без точки перехода
Параметр матрицы формата : Default (MPEG)
Режим смешивания : Сжатый битовый поток
Идентификатор кодека : XVID
Идентификатор кодека/Подсказка : XviD
Продолжительность : 1 ч. 1 м.
Битрейт : 1798 Кбит/сек
Ширина : 704 пикс.
Высота : 528 пикс.
Соотношение сторон : 4:3
Частота кадров : 25,000 кадр/сек
Цветовое пространство : YUV
Подвыборка цветности : 4:2:0
Битовая глубина : 8 бит
Тип развёртки : Прогрессивная
Метод сжатия : С потерями
Бит/(Пиксели*Кадры) : 0.193
Размер потока : 792 Мбайт (90%)
Библиотека кодирования : XviD 1.2.1 (UTC 2008-12-04)
Аудио
Идентификатор : 1
Формат : AC-3
Формат/Информация : Audio Coding 3
Расширение режима : CM (complete main)
Идентификатор кодека : 2000
Продолжительность : 1 ч. 1 м.
Вид битрейта : Постоянный
Битрейт : 192 Кбит/сек
Каналы : 2 канала
Расположение каналов : Front: L R
Частота : 48,0 КГц
Битовая глубина : 16 бит
Метод сжатия : С потерями
Размер потока : 84,5 Мбайт (10%)
Выравнивание : Соединение по промежуткам
Продолжительность промежутка : 40 мс. (1,00 видеокадр)
Время предзагрузки промежутка : 512 ms

Скриншоты




Показать сообщения:    

Текущее время: 04-Дек 15:14

Часовой пояс: UTC + 3


Вы не можете начинать темы
Вы не можете отвечать на сообщения
Вы не можете редактировать свои сообщения
Вы не можете удалять свои сообщения
Вы не можете голосовать в опросах
Вы не можете прикреплять файлы к сообщениям
Вы не можете скачивать файлы