Дмитрий Шостакович - Болт (Алексей Ратманский, Павел Сорокин, Анастасия Яценко, Андрей Меркурьев, Денис Савин, Морихиро Ивата) [2006, Modern Ballet, SATRip]


 

[Цитировать]

Дмитрий Шостакович - Болт Год выпуска: 2006
Лейбл: HD suisse
Страна-производитель: Россия
Жанр: Современный балет
Продолжительность: 01:27:14
Язык: Русский
Балет и оркестр: Большого театра
Дирижер: Павел Сорокин
Режиссер/Хореограф: Алексей Ратманский
Действующие лица и исполнители:
Настя, комсорг - Анастасия Яценко
Ян - Андрей Меркурьев
Денис - Денис Савин
Ивашка, беспризорник - Морихиро Ивата

Описание: Современная версия балета (либретто Виктора Смирнова в редакции Алексея Ратманского, хореография Алексея Ратманского). Производственный балет «Болт», опальный, как все театральные сочинения Шостаковича, показанный лишь однажды и на долгие годы забытый, поставил художественный руководитель балетной труппы Большого театра Алексей Ратманский. С ним сотрудничал Семён Пастух - известный петербургский театральный художник, ныне живущий в США. Сценографическое решение (заводской цех с машинами-роботами, повинующимися дистанционному управлению) потребовало беспрецедентные действия от постановочной части: перед каждым представлением приходилось убирать все кулисы, оставляя «заводские стены» решительно ничем не прикрытыми... Постановка к 100-летию Дмитрия Шостаковича.
Источник: http://teatrix.ru/viewtopic.php?t=202

Постановка

Хореограф-постановщик - Алексей Ратманский
Художник-постановщик - Семен Пастух
Художник по костюмам - Галина Соловьева
Дирижер-постановщик - Павел Сорокин
Художник по свету - Глеб Фильштинский
Премьера состоялась 25 февраля 2005 года.

Сцены

• Картина первая:
Увертюра
Зарядка. Радио-ритмическая сцена
Установка машин
Танец Чертежника, Техника-наладчика и Машинисток
Митинг и танец уборщиц
Пуск нового цеха
Сцена Дениса
Возобновление работы цеха
• Картина вторая:
В пивной
Танцы-характеристики:
- Манька Фарт
- Иван Штопор и Федор Пива
- Козельков («Бюрократ»)
Сцена Насти, Дениса и Яна
Танец Дениса («Ломовой»)
Появление Ивашки и Танго
• Картина третья:
Интерлюдия
Уход с работы
Сцена с болтом
«Новая семья» - трио Насти, Яна и Ивашки
• Картина четвертая:
«Морская конференция»
Вариация Насти («Эстетка»)
Вариация Ивашки («Соглашатель»)
Вариация Яна («Кузнец»)
Танцы Красной Армии: Осоавиахимовцы, Самокатчики, Красноармейцы и Краснофлотцы, Авиаторы, Конница Буденного
Апофеоз
Качество видео: SATRip
Формат/Контейнер: AVI
Видео кодек: XviD
Аудио кодек: AC3
Видео поток: MPEG-4 Visual, 1523 Кбит/сек, 704 x 400 (1.760), 29.970 fps
Аудио поток: AC-3, 256 Кбит/сек, 2 канала, 48,0 КГц

MediaInfo

Общее
Полное имя : Shostakovich-Bolt.2006.SATRip.avi
Формат : AVI
Формат/Информация : Audio Video Interleave
Размер файла : 1,09 Гбайт
Продолжительность : 1 ч. 27 м.
Общий поток : 1790 Кбит/сек
Программа кодирования : VirtualDubMod 1.5.10.2 (build 2540/release)
Библиотека кодирования : VirtualDubMod build 2540/release
Видео
Идентификатор : 0
Формат : MPEG-4 Visual
Профиль формата : Advanced Simple@L5
Параметр BVOP формата : 3
Параметр QPel формата : Нет
Параметр GMC формата : Без точки перехода
Параметр матрицы формата : Default (MPEG)
Режим смешивания : Сжатый битовый поток
Идентификатор кодека : XVID
Идентификатор кодека/Подсказка : XviD
Продолжительность : 1 ч. 27 м.
Битрейт : 1523 Кбит/сек
Ширина : 704 пикс.
Высота : 400 пикс.
Соотношение сторон : 16:9
Частота кадров : 29,970 кадр/сек
Цветовое пространство : YUV
Подвыборка цветности : 4:2:0
Битовая глубина : 8 бит
Тип развёртки : Прогрессивная
Метод сжатия : С потерями
Бит/(Пиксели*Кадры) : 0.180
Размер потока : 950 Мбайт (85%)
Библиотека кодирования : XviD 1.2.1 (UTC 2008-12-04)
Аудио
Идентификатор : 1
Формат : AC-3
Формат/Информация : Audio Coding 3
Расширение режима : CM (complete main)
Идентификатор кодека : 2000
Продолжительность : 1 ч. 27 м.
Вид битрейта : Постоянный
Битрейт : 256 Кбит/сек
Каналы : 2 канала
Расположение каналов : Front: L R
Частота : 48,0 КГц
Битовая глубина : 16 бит
Метод сжатия : С потерями
Размер потока : 160 Мбайт (14%)
Выравнивание : Соединение по промежуткам
Продолжительность промежутка : 33 мс. (1,00 видеокадр)
Время предзагрузки промежутка : 512 ms

Скриншоты




Показать сообщения:    

Текущее время: 11-Дек 11:08

Часовой пояс: UTC + 3


Вы не можете начинать темы
Вы не можете отвечать на сообщения
Вы не можете редактировать свои сообщения
Вы не можете удалять свои сообщения
Вы не можете голосовать в опросах
Вы не можете прикреплять файлы к сообщениям
Вы не можете скачивать файлы