Калигула (Антонио Вивальди) (Николя Ле Риш, Раймон Кувре, Филипп Жордан, Фредерик Ларок, Стефан Бульон, Николя Поль, Элеонора Абаньято / Caligula (Vivaldi, Le Riche, Jordan, Laroque, Bullion, Abbagnato) [2011, Ballet, IPTVRip]


 

[Цитировать]

Калигула
Caligula
Год выпуска: 2011
Лейбл: Mezzo
Страна-производитель: Франция
Жанр: Ballet
Продолжительность: 01:29:25
Язык: Французский
Перевод: Не требуется
Субтитры: Нет
Оркестр: Парижской Национальной оперы
Дирижер: Филипп Жордан, Фредерик Ларок
Режиссер/Хореограф: Николя Ле Риш, Раймон Кувре
Исполнители: Стефан Бульон, Клермари Оста, Николя Поль, Орельен Хует, Матиас Хейман, Элеонора Абаньято
Описание: Вдохновившись историей о римском императоре, который в сознании общества является воплощением мании величия, Николя Ле Риш преодолевает общепринятые клише и создаёт богатый и противоречивый образ Калигулы, исследуя его внутренний мир. Спектакль был впервые показан в 2005 году в Парижской опере. Танцовщик-премьер Парижской Оперы Николя Ле Риш увлёкся историей и противоречивой личностью римского императора Калигулы, погибшего в возрасте 29 лет, и это увлечение стало источником его первого хореографического опыта. Калигула – символ деспотизма и порока Римской Империи, в либретто балета, написанного Гийомом Галеном, предстаёт прежде всего любителем театра и колоссальных представлений, пронизанных жестокостью, связанной с его безумием, что является исторически доказанным фактом. Ле Риш хочет воссоздать поэта, обожествившего Луну, как небесную возлюбленную и идеализировавшего свою лошадь как друга. Лошадь он не только ввёл в Сенат, но и построил для неё дворец. Калигула в балете - деспот и поэт одновременно. В балете используется музыка «Времён года» Вивальди, передающая неумолимый ход времени; а блестящая современная хореография передают поэзию и жестокость натуры римского императора. Постановочные и световые эффекты создают на сцене неповторимое зрелище.
Музыка: Антонио Вивальди («Времена года»)

Постановка

Хореография: Николя Ле Риш
Сценография: Даниэль Жаннетту
Электро-акустическая композиция: Луис Дандрель
Драматургия: Гийом Гайен
Видео: Раймон Кувре
Костюмы: Оливер Берио
Свет: Доминик Бружьер
Дирижер и скрипка соло: Фредерик Ларок
Качество видео: IPTVRip
Формат/Контейнер: AVI
Видео кодек: XviD
Аудио кодек: AC3
Видео поток: MPEG-4 Visual, 1770 Кбит/сек, 704 x 400 (1.760), 25.000 fps, 0.25 bit/pixel
Аудио поток: AC-3, 448 Кбит/сек, 2 канала, 48,0 КГц

MediaInfo

Общее
Полное имя : Caligula.2011.IPTVRip.avi
Формат : AVI
Формат/Информация : Audio Video Interleave
Размер файла : 1,39 Гбайт
Продолжительность : 1 ч. 29 м.
Общий поток : 2228 Кбит/сек
Программа кодирования : VirtualDubMod 1.5.10.2 (build 2540/release)
Библиотека кодирования : VirtualDubMod build 2540/release
Видео
Идентификатор : 0
Формат : MPEG-4 Visual
Профиль формата : Advanced Simple@L5
Параметр BVOP формата : 2
Параметр QPel формата : Нет
Параметр GMC формата : Без точки перехода
Параметр матрицы формата : Default (MPEG)
Режим смешивания : Сжатый битовый поток
Идентификатор кодека : XVID
Идентификатор кодека/Подсказка : XviD
Продолжительность : 1 ч. 29 м.
Битрейт : 1770 Кбит/сек
Ширина : 704 пикс.
Высота : 400 пикс.
Соотношение сторон : 16:9
Частота кадров : 25,000 кадр/сек
Цветовое пространство : YUV
Подвыборка цветности : 4:2:0
Битовая глубина : 8 бит
Тип развёртки : Прогрессивная
Метод сжатия : С потерями
Бит/(Пиксели*Кадры) : 0.251
Размер потока : 1,11 Гбайт (79%)
Библиотека кодирования : XviD 1.2.1 (UTC 2008-12-04)
Аудио
Идентификатор : 1
Формат : AC-3
Формат/Информация : Audio Coding 3
Расширение режима : CM (complete main)
Идентификатор кодека : 2000
Продолжительность : 1 ч. 29 м.
Вид битрейта : Постоянный
Битрейт : 448 Кбит/сек
Канал(ы) : 2 канала(ов)
Расположение каналов : Front: L R
Частота : 48,0 КГц
Битовая глубина : 16 бит
Метод сжатия : С потерями
Размер потока : 287 Мбайт (20%)
Выравнивание : Соединение по промежуткам
Продолжительность промежутка : 40 мс. (1,00 видеокадр)
Время предзагрузки промежутка : 512 ms

Скриншоты




Показать сообщения:    

Текущее время: 06-Дек 15:05

Часовой пояс: UTC + 3


Вы не можете начинать темы
Вы не можете отвечать на сообщения
Вы не можете редактировать свои сообщения
Вы не можете удалять свои сообщения
Вы не можете голосовать в опросах
Вы не можете прикреплять файлы к сообщениям
Вы не можете скачивать файлы