Кармен. Балет Ролана Пети (Жорж Бизе) (Дирк Сандерс, Жак Базир, Зизи Жанмер, Михаил Барышников) / Carmen Roland Petit\'s (Bizet, Sanders, Bazire, Jeanmaire) [1980, Ballet, DVDRip]


 

[Цитировать]

Кармен. Балет Ролана Пети
Roland Petit - Carmen
Год выпуска: 1980
Лейбл: Telmondis, Kultur
Страна-производитель: Франция
Жанр: Ballet
Продолжительность: 00:43:34
Язык: Французский
Перевод: Не требуется
Субтитры: Нет
Композитор: Жорж Бизе
Балет и оркестр: Национального балета Марселя Ролана Пети
Дирижер: Жак Базир
Режиссер/Хореограф: Ролан Пети, Дирк Сандерс
Исполнители: Зизи Жанмер, Михаил Барышников, Дени Ганьо, Луиджи Бонино
Описание: Среди наиболее ярких балетных постановок «Кармен» - спектакль Ролана Пети, созданный им для своей жены Зизи Жанмер. Кармен—Жанмер, элегантная и очень французская, поражала скрытым за внешним шиком коварством, а также острой, насмешливой пластикой. Его стриженная «под мальчика» длинноногая Кармен – скорее француженка, чем цыганка, истинная парижанка – самоуверенная, обольстительная. «Она танцевала блистательно, как никто не танцевал ни до неё, ни после. Она дала мне свой талант, свою технику, работа с ней очень сильно повлияла на меня,» - Ролан Пети о Зизи Жармен... «Из всех моих балетов мне больше всего нравится «Кармен»,» - Пети. Именно «Кармен» сделала его знаменитым...
Запись из издания «Коллекция Барышникова».
Качество видео: DVDRip
Формат/Контейнер: AVI
Видео кодек: XviD
Аудио кодек: AC3
Видео поток: MPEG-4 Visual, 1849 Кбит/сек, 704 x 528 (1.333), 29.970 fps, 0.17 bit/pixel
Аудио поток: AC-3, 384 Кбит/сек, 2 канала, 48,0 КГц

MediaInfo

Общее
Полное имя : D:\CLASSIC\Petit-Carmen.1980.DVDRip.avi
Формат : AVI
Формат/Информация : Audio Video Interleave
Размер файла : 699 Мбайт
Продолжительность : 43 м.
Общий поток : 2243 Кбит/сек
Программа кодирования : VirtualDubMod 1.5.10.2 (build 2540/release)
Видео
Идентификатор : 0
Формат : MPEG-4 Visual
Профиль формата : Advanced Simple@L5
Параметр BVOP формата : 3
Параметр QPel формата : Нет
Параметр GMC формата : Без точки перехода
Параметр матрицы формата : Default (MPEG)
Режим смешивания : Сжатый битовый поток
Идентификатор кодека : XVID
Идентификатор кодека/Подсказка : XviD
Продолжительность : 43 м.
Битрейт : 1849 Кбит/сек
Ширина : 704 пикс.
Высота : 528 пикс.
Соотношение сторон : 4:3
Частота кадров : 29,970 кадр/сек
Цветовое пространство : YUV
Подвыборка цветности : 4:2:0
Битовая глубина : 8 бит
Тип развёртки : Прогрессивная
Метод сжатия : С потерями
Бит/(Пиксели*Кадры) : 0.166
Размер потока : 576 Мбайт (82%)
Библиотека кодирования : XviD 1.2.1 (UTC 2008-12-04)
Аудио
Идентификатор : 1
Формат : AC-3
Формат/Информация : Audio Coding 3
Расширение режима : CM (complete main)
Идентификатор кодека : 2000
Продолжительность : 43 м.
Вид битрейта : Постоянный
Битрейт : 384 Кбит/сек
Канал(ы) : 2 канала(ов)
Расположение каналов : Front: L R
Частота : 48,0 КГц
Битовая глубина : 16 бит
Метод сжатия : С потерями
Размер потока : 119 Мбайт (17%)
Выравнивание : Соединение по промежуткам
Продолжительность промежутка : 33 мс. (1,00 видеокадр)
Время предзагрузки промежутка : 512 ms

Скриншоты




Показать сообщения:    

Текущее время: 06-Дек 15:13

Часовой пояс: UTC + 3


Вы не можете начинать темы
Вы не можете отвечать на сообщения
Вы не можете редактировать свои сообщения
Вы не можете удалять свои сообщения
Вы не можете голосовать в опросах
Вы не можете прикреплять файлы к сообщениям
Вы не можете скачивать файлы