Кеннет Макмиллан - Майерлинг (Лист, Ланчбери, Макгиббон, Уордсворт, Уотсон, Галеацци) / Kenneth MacMillan - Mayerling (Liszt, Lanchberry, MacGibbon, Wordsworth, Watson, Galeazzi) [2009, Ballet, DVDRip]


 

[Цитировать]

Кеннет Макмиллан - Майерлинг
Kenneth MacMillan - Mayerling
Год выпуска: 2009
Лейбл: Opus Arte
Страна-производитель: Великобритания
Жанр: Ballet
Продолжительность: 02:17:14
Язык: Английский
Перевод: Не требуется
Субтитры: Нет
Оркестр: Королевского оперного театра
Дирижер: Бэрри Уордсворт
Режиссер/Хореограф: Росс Макгиббон / Кеннет Макмиллан
Исполнители: Эдвард Уотсон, Мара Галеацци, Иона Лутс, Уильям Такет, Синди Журден
Описание: Созданный в 1978 году, этот балет основан на подлинной истории последнего периода жизни австро-венгерского кронпринца Рудольфа. Обстоятельства смерти Рудольфа и семнадцатилетней Марии Вечеры всегда были окутаны тайной, тщательно хранимой австро-венгерским королевским двором. Несчастливая женитьба Рудольфа на бельгийской принцессе Стефании, продиктованная политическими соображениями, его участие в деле венгерских сепаратистов, тягостная конфронтация с отцом, императором Францем Иосифом, несомненно, явились причинами ужасной развязки в Майерлинге. Мемуары и письма раскрывают, что Рудольф был развращённым и зачастую деспотичным принцем, а Марию преследовало навязчивое желание умереть за идею любви. Этот эмоциональный этюд о глубоко ущербных человеческих характерах — одна из лучших работ Макмиллана с диапазоном чувств от ненависти до любви, от любви до стремления к смерти. В «Майерлинге» Макмиллан ставил очередную историю обречённой любви, ставил, вспоминая «Ромео и Джульетту» Лавровского, виденных в юные годы, и потому отсекая каждую сцену отдельным закрытием занавеса. Но отстранялся от пафоса, иногда насмешничал, развлекался. Сюжет балета особой радости не предполагает: история вдохновенного морфиниста, тасовавшего женщин, воображавшего себя Гамлетом (безосновательно; однажды застукал, конечно, матушку с милым другом, но папа-то жив-здоров, и тоже случая не упускает), невнятно участвовавшего в революционном заговоре и в конце концов покончившего с собой в компании своей юной любовницы. Но женский мир, что окружает гамлетизирующего Рудольфа (он всё ходит с черепом в руках), так лёгок, так лукав, в нём столько вальсирующей жизни, что страдания принца выглядят прямо-таки нелепо. В спектакле часто кажется, что Макмиллан сам над собой смеялся, над своими страхами, своей мизантропией: вот последняя девушка принца, столь же экзальтированная, как и он, хватается за пистолет, направляя его на героя, и принц, до того уже раз пять подносивший оружие к виску (без особых причин, по настроению) пятится по полу и в ужасе прикрывает рукой лицо... «Майерлинг» Кеннет Макмиллан вернул на сцену в 1992-м году и во время премьеры скончался за кулисами от сердечного приступа.

Музыка

Композитор - Франц Лист
Аранжировка и оркестровка - Джон Ланчберри
Хореография - Кеннет Макмиллан
Исходник BDRip
Качество видео: DVDRip
Формат/Контейнер: AVI
Видео кодек: XviD
Аудио кодек: AC3
Видео поток: MPEG-4 Visual, 1819 Кбит/сек, 704 x 400 (1.760), 29.970 fps, 0.22 bit/pixel
Аудио поток: AC-3, 448 Кбит/сек, 6 каналов, 48,0 КГц

MediaInfo

Общее
Полное имя : MacMillan-Mayerling.2009.DVDRip.avi
Формат : AVI
Формат/Информация : Audio Video Interleave
Профиль формата : OpenDML
Размер файла : 2,19 Гбайт
Продолжительность : 2 ч. 17 м.
Общий поток : 2282 Кбит/сек
Программа кодирования : VirtualDubMod 1.5.10.2 (build 2540/release)
Видео
Идентификатор : 0
Формат : MPEG-4 Visual
Профиль формата : Advanced Simple@L5
Параметр BVOP формата : 3
Параметр QPel формата : Нет
Параметр GMC формата : Без точки перехода
Параметр матрицы формата : Default (MPEG)
Режим смешивания : Сжатый битовый поток
Идентификатор кодека : XVID
Идентификатор кодека/Подсказка : XviD
Продолжительность : 2 ч. 17 м.
Битрейт : 1819 Кбит/сек
Ширина : 704 пикс.
Высота : 400 пикс.
Соотношение сторон : 16:9
Частота кадров : 29,970 кадр/сек
Цветовое пространство : YUV
Подвыборка цветности : 4:2:0
Битовая глубина : 8 бит
Тип развёртки : Прогрессивная
Метод сжатия : С потерями
Бит/(Пиксели*Кадры) : 0.216
Размер потока : 1,74 Гбайт (80%)
Библиотека кодирования : XviD 1.2.1 (UTC 2008-12-04)
Аудио
Идентификатор : 1
Формат : AC-3
Формат/Информация : Audio Coding 3
Расширение режима : CM (complete main)
Идентификатор кодека : 2000
Продолжительность : 2 ч. 17 м.
Вид битрейта : Постоянный
Битрейт : 448 Кбит/сек
Канал(ы) : 6 канала(ов)
Расположение каналов : Front: L C R, Side: L R, LFE
Частота : 48,0 КГц
Битовая глубина : 16 бит
Метод сжатия : С потерями
Размер потока : 440 Мбайт (20%)
Выравнивание : Соединение по промежуткам
Продолжительность промежутка : 33 мс. (1,00 видеокадр)
Время предзагрузки промежутка : 512 ms

Скриншоты




Показать сообщения:    

Текущее время: 09-Дек 06:58

Часовой пояс: UTC + 3


Вы не можете начинать темы
Вы не можете отвечать на сообщения
Вы не можете редактировать свои сообщения
Вы не можете удалять свои сообщения
Вы не можете голосовать в опросах
Вы не можете прикреплять файлы к сообщениям
Вы не можете скачивать файлы