Ролан Пети - Пруст, или Перебои сердца (Батайон, Кесселс, Абаньято, Моро, Бульон) / Roland Petit - Proust ou Les intermittences du coeur (Kessels, Bataillon, Abbagnato, Moreau, Bullion) [2007, Ballet, DVDRip]


 

[Цитировать]

Ролан Пети - Пруст, или Перебои сердца
Roland Petit - Proust ou Les intermittences du coeur
Год выпуска: 2007
Лейбл: Telmondis, Bel Air Classique
Страна-производитель: Франция
Жанр: Ballet
Продолжительность: 01:42:16
Язык: Французский
Перевод: Не требуется
Субтитры: Русские (вшитые, титры)
Оркестр: Парижской национальной оперы
Дирижер: Коэн Кесселс
Режиссер/Хореограф: Венсан Батайон / Ролан Пети
Исполнители: Элеонора Абаньято, Эрве Моро, Стефан Бульон, Манюэль Легри, Матье Ганьо, Стефани Ромбер
Описание: После Гёте, Мериме и Гюго прославленный хореограф продолжает свои исследования главных произведений литературы. Он следует своему убеждению, что литература содержит много прекрасных страниц, которые могут быть представлены на балетной сцене. Главный герой постановки - сам Марсель Пруст, все книги его полуавтобиографического цикла положены на 100 минут музыки великих композиторов. Каждое из произведений представлено, как правило, одним адажио. Зато таким, какие умел придумывать только Пети — когда банальное поднимание ноги к уху превращается в акт искусства, поскольку наполнено невероятной игрой стопы, колена, икры...
Раздача в SATRip - Размер: 3,56 GB

Музыка

• Титры.
Музыка - КАМИЛЬ СЕН-САНС, «Карнавал животных»
• Вступление. Салон мадам Вердюрен.
Музыка - РЕЙНАЛЬДО ХАН, «Восхитительный час»
• «Короткая фраза из Вентейля», или музыка любви.
Музыка - СЕЗАР ФРАНК, Соната для скрипки и фортепиано
• «Боярышник», или волшебные слова.
Музыка - ГУСТАВ ФОРЕ, Баллада для оркестра, соч. 19
• «Орхидеиться», или метафоры страсти.
Музыка - КАМИЛЬ СЕН-САНС, Концертная пьеса для арфы с оркестром, соч. 154
• «Девушки в цвету», или волшебные каникулы.
Музыка - КЛОД ДЕБЮССИ, «Море»
• «Альбертина и Андре», или Тюрьма и сомнения.
Музыка - КЛОД ДЕБЮССИ, «Сиринкс»
• «Наблюдая ее спящей», или враждебная реальность.
Музыка - СЕЗАР ФРАНК, «Психея», КАМИЛЬ СЕН-САНС, Симфония №3 для органа
• Месье де Шарлю встречается с неуловимым.
Музыка - ЛЮДВИГ ВАН БЕТХОВЕН, Струнный квартет №14, соч. 131
• Месье де Шарлю сражён невозможным.
Музыка - КАМИЛЬ СЕН-САНС, Хаванез для скрипки и оркестра
• Муки месье де Шарлю.
Музыка - КАМИЛЬ СЕН-САНС, Героический марш
• Случайная встреча в неведомом.
Музыка - КЛОД ДЕБЮССИ, «Танец священный и танец мирской» для арфы и струнного оркестра
• «Морель и Сен-Лу», или борьба ангелов.
Музыка - ГУСТАВ ФОРЕ, Элегия для виолончели и оркестра
• «Эта мысль о смерти...»
Музыка - РИХАРД ВАГНЕР, Увертюра к опере «Риенци»
Качество видео: DVDRip
Формат/Контейнер: AVI
Видео кодек: XviD
Аудио кодек: AC3
Видео поток: MPEG-4 Visual, 1577 Кбит/сек, 704 x 384 (1.833), 29.970 fps, 0.19 bit/pixel
Аудио поток: AC-3, 448 Кбит/сек, 6 каналов, 48,0 КГц

MediaInfo

Общее
Полное имя : Petit-Proust.ou.Les.intermittences.du.coeur.2007.DVDRip.avi
Формат : AVI
Формат/Информация : Audio Video Interleave
Размер файла : 1,45 Гбайт
Продолжительность : 1 ч. 42 м.
Общий поток : 2034 Кбит/сек
Программа кодирования : VirtualDubMod 1.5.10.2 (build 2540/release)
Видео
Идентификатор : 0
Формат : MPEG-4 Visual
Профиль формата : Advanced Simple@L5
Параметр BVOP формата : 3
Параметр QPel формата : Нет
Параметр GMC формата : Без точки перехода
Параметр матрицы формата : Default (MPEG)
Режим смешивания : Сжатый битовый поток
Идентификатор кодека : XVID
Идентификатор кодека/Подсказка : XviD
Продолжительность : 1 ч. 42 м.
Битрейт : 1577 Кбит/сек
Ширина : 704 пикс.
Высота : 384 пикс.
Соотношение сторон : 16:9
Частота кадров : 29,970 кадр/сек
Цветовое пространство : YUV
Подвыборка цветности : 4:2:0
Битовая глубина : 8 бит
Тип развёртки : Прогрессивная
Метод сжатия : С потерями
Бит/(Пиксели*Кадры) : 0.195
Размер потока : 1,13 Гбайт (78%)
Библиотека кодирования : XviD 1.2.1 (UTC 2008-12-04)
Аудио
Идентификатор : 1
Формат : AC-3
Формат/Информация : Audio Coding 3
Расширение режима : CM (complete main)
Идентификатор кодека : 2000
Продолжительность : 1 ч. 41 м.
Вид битрейта : Постоянный
Битрейт : 448 Кбит/сек
Канал(ы) : 6 канала(ов)
Расположение каналов : Front: L C R, Side: L R, LFE
Частота : 48,0 КГц
Битовая глубина : 16 бит
Метод сжатия : С потерями
Размер потока : 326 Мбайт (22%)
Выравнивание : Соединение по промежуткам
Продолжительность промежутка : 34 мс. (1,01 видеокадр)
Время предзагрузки промежутка : 512 ms

Скриншоты




Показать сообщения:    

Текущее время: 11-Дек 05:18

Часовой пояс: UTC + 3


Вы не можете начинать темы
Вы не можете отвечать на сообщения
Вы не можете редактировать свои сообщения
Вы не можете удалять свои сообщения
Вы не можете голосовать в опросах
Вы не можете прикреплять файлы к сообщениям
Вы не можете скачивать файлы