Брайан Элиас - Дерево Иуды (Кеннет МакМиллан) / Brian Elias - The Judas Tree (Kenneth Macmillan) (Carlos Acosta, Leanne Benjamin & Edward Watson, Barry Wordsworth) [2010, Балет, DVDRip]


 

[Цитировать]

Дерево Иуды / The Judas Tree
Год выпуска: 2010
Страна-производитель: Великобритания
Жанр: Современный балет
Продолжительность: 00:39:59
Музыка: Брайан Элиас / Brian Elias
Исполнители музыки: The Orchestra of the Royal Opera House
Режиссер/Хореограф: Кеннет МакМиллан / Kenneth Macmillan
Исполнители: Carlos Acosta, Leanne Benjamin & Edward Watson, Barry Wordsworth
Описание: Одноактный балет одного из самых почитаемых хореографов Британии Кеннета МакМиллана представленный зрителям в Royal Opera House Covent Garden в марте 2010 года.
Доп. информация: Премьера балета, ставшего последней работой МакМиллана для Королевского Балета, состоялась 19 мая 1992 года. Одна из самых известных постановок знаменитого британского хореографа. Балет, получивший престижную премию Лоуренса Оливье, был создан специально для Ирека Мухамедова. Драматическая история предательства и насилия разворачивается на задворках мрачной лондонской судоверфи, заваленной мусором. Когда балет был впервые исполнен, он вызвал споры и разногласия. Героический романтизм классического балета был поставлен с ног на голову. Балет о мире, в котором слишком много насилия, балет - осуждение человеческих пороков.
Сэмпл:http://multi-up.com/469443
Качество видео: DVDRip
Формат/Контейнер: AVI
Видео кодек: XviD
Аудио кодек: AC3
Видео поток: Xvid 720x416 29.97fps 2134kbps [Video 0]
Аудио поток: Dolby AC3 48000Hz 6ch 448kbps [Audio 1]

MediaInfo

Format : AVI
Format/Info : Audio Video Interleave
File size : 742 MiB
Duration : 39mn 59s
Overall bit rate : 2 595 Kbps
Writing application : VirtualDubModRus 1.5.10.2 (build 2540/release)
Writing library : VirtualDubMod build 2540/release
Video
ID : 0
Format : MPEG-4 Visual
Format profile : Advanced Simple@L5
Format settings, BVOP : Yes
Format settings, QPel : No
Format settings, GMC : No warppoints
Format settings, Matrix : Custom
Codec ID : XVID
Codec ID/Hint : XviD
Duration : 39mn 59s
Bit rate : 2 135 Kbps
Width : 720 pixels
Height : 416 pixels
Display aspect ratio : 16:9
Frame rate : 29.970 fps
Color space : YUV
Chroma subsampling : 4:2:0
Bit depth : 8 bits
Scan type : Progressive
Bits/(Pixel*Frame) : 0.238
Stream size : 611 MiB (82%)
Writing library : XviD 1.1.2 (UTC 2006-11-01)
Audio
ID : 1
Format : AC-3
Format/Info : Audio Coding 3
Mode extension : CM (complete main)
Codec ID : 2000
Duration : 39mn 59s
Bit rate mode : Constant
Bit rate : 448 Kbps
Channel(s) : 6 channels
Channel positions : Front: L C R, Side: L R, LFE
Sampling rate : 48.0 KHz
Bit depth : 16 bits
Stream size : 128 MiB (17%)
Alignment : Split accross interleaves
Interleave, duration : 33 ms (1.00 video frame)
Interleave, preload duration : 500 ms

Скриншоты




Показать сообщения:    

Текущее время: 08-Дек 17:22

Часовой пояс: UTC + 3


Вы не можете начинать темы
Вы не можете отвечать на сообщения
Вы не можете редактировать свои сообщения
Вы не можете удалять свои сообщения
Вы не можете голосовать в опросах
Вы не можете прикреплять файлы к сообщениям
Вы не можете скачивать файлы