Ролан Пети - Летучая мышь / La Chauve-souris / Il pipistrello / Die Fledermaus (Strauss, Petit, Protasoni, Rhodes, Ferri) [2003, Ballet, DVDRip]


 

[Цитировать]

Ролан Пети - Летучая мышь
Roland Petit - La Chauve-souris (Il pipistrello / Die Fledermaus)
Год выпуска: 2003
Лейбл: RAI, TDK
Страна-производитель: Италия
Жанр: Балет, танцоперетта
Продолжительность: 01:33:01
Язык: Итальянский
Перевод: Не требуется
Субтитры: Нет
Режиссер/Хореограф: Ролан Пети, Тина Протасони
Балет и оркестр: Театр Арчимболди и Ла Скала
Дирижер: Кевин Родос
Исполнители: Алессандра Ферри, Массимо Мурру, Луиджи Бонино, Мик Зени, Джорджио Трукко
Описание: Балет на сюжет одноимённой оперетты. Впервые «Летучая мышь» была поставлена Роланом Пети в 1979 году для Национального балета Марселя. Данная версия выпущена специально для Алессандры Ферри и увидела свет в миланском театре Арчимболди (Teatro degli Arcimboldi), известном как филиал знаменитого Ла Скала. Обращение Ролана Пети к музыке Штрауса и сюжету классической оперетты вылилось в жанр танцоперетты. Пети изменил имена главных героев. Так Розалинда стала Беллой, Айзенштайн – Иоганном, а Фальк - Ульрихом. Важное место в постановке отведено мелодии богемского танца.
Качество видео: DVDRip
Формат/Контейнер: AVI
Видео кодек: XviD
Аудио кодек: AC3
Видео поток: MPEG-4 Visual, 1775 Кбит/сек, 704 x 400 (1.760), 25.000 fps, 0.25 bit/pixel
Аудио поток: AC-3, 448 Кбит/сек, 6 каналов, 48,0 КГц

MediaInfo

Общее
Полное имя : Roland.Petit-Il.pipistrello.2003.DVDRip.avi
Формат : AVI
Формат/Информация : Audio Video Interleave
Размер файла : 1,45 Гбайт
Продолжительность : 1 ч. 33 м.
Общий поток : 2232 Кбит/сек
Программа кодирования : VirtualDubMod 1.5.10.2 (build 2540/release)
Видео
Идентификатор : 0
Формат : MPEG-4 Visual
Профиль формата : Advanced Simple@L5
Параметр BVOP формата : 3
Параметр QPel формата : Нет
Параметр GMC формата : Без точки перехода
Параметр матрицы формата : Default (MPEG)
Режим смешивания : Сжатый битовый поток
Идентификатор кодека : XVID
Идентификатор кодека/Подсказка : XviD
Продолжительность : 1 ч. 33 м.
Битрейт : 1775 Кбит/сек
Ширина : 704 пикс.
Высота : 400 пикс.
Соотношение сторон : 16:9
Частота кадров : 25,000 кадр/сек
Цветовое пространство : YUV
Подвыборка цветности : 4:2:0
Битовая глубина : 8 бит
Тип развёртки : Прогрессивная
Метод сжатия : С потерями
Бит/(Пиксели*Кадры) : 0.252
Размер потока : 1,15 Гбайт (79%)
Библиотека кодирования : XviD 1.2.1 (UTC 2008-12-04)
Аудио
Идентификатор : 1
Формат : AC-3
Формат/Информация : Audio Coding 3
Расширение режима : CM (complete main)
Идентификатор кодека : 2000
Продолжительность : 1 ч. 33 м.
Вид битрейта : Постоянный
Битрейт : 448 Кбит/сек
Канал(ы) : 6 канала(ов)
Расположение каналов : Front: L C R, Side: L R, LFE
Частота : 48,0 КГц
Битовая глубина : 16 бит
Метод сжатия : С потерями
Размер потока : 298 Мбайт (20%)
Выравнивание : Соединение по промежуткам
Продолжительность промежутка : 40 мс. (1,00 видеокадр)
Время предзагрузки промежутка : 512 ms

Скриншоты




Показать сообщения:    

Текущее время: 05-Дек 15:30

Часовой пояс: UTC + 3


Вы не можете начинать темы
Вы не можете отвечать на сообщения
Вы не можете редактировать свои сообщения
Вы не можете удалять свои сообщения
Вы не можете голосовать в опросах
Вы не можете прикреплять файлы к сообщениям
Вы не можете скачивать файлы