Тьерри Маланден - Колдовская любовь. Портрет инфанты (Мануэль де Фалья, Морис Равель) / Thierry Malandain - L\'Amour Sorcier. Le Portrait de l\'Infante (Manuel de Falla, Maurice Ravel) [2008, Modern Ballet, DVDRip]


 

[Цитировать]

Тьерри Маланден - Колдовская любовь. Портрет инфанты
Thierry Malandain - L'Amour Sorcier. Le Portrait de l'Infante
Год выпуска: 2008
Лейбл: C.C.N. Ballet Biarritz
Страна-производитель: Франция
Жанр: Modern Ballet
Продолжительность: 00:28:51 + 00:38:09
Язык: Французский
Перевод: Не требуется
Режиссер/Хореограф: Тьерри Маланден / Thierry Malandain
Исполнители: Балет Биаррица / Ballet Biarritz
Треклист:
«Колдовская любовь». Музыка - Мануэль де Фалья.
Воплощение в танце андалусийской легенды о юных влюблённых, разлучённых смертью, и о том, как любовник приходит к девушке из потустороннего мира.
«Портрет инфанты». Музыка - Морис Равель.
Вариации на тему картины Диего Веласкеса «Менины», одной из самых загадочных картин в истории европейской живописи.
Описание: Тьерри Маланден входит в топ-десятку европейских мастеров современной хореографии. Основу его труппы составляют молодые танцовщики, в основном выходцы из Школы «Опера де Пари», блестяще образованные в области классического танца. О Маландене говорят, что он умеет держать традицию: в век тотальной свободы он удивляет почтением к искусству классического балета. Назло времени Маланден не создаёт новые темы, не продуцирует интерактивные инсталляции, не становится рабом балетной технократии. Он работает в кругу эстетских тем, ещё не исчерпанных, но уже крепко забытых на Западе.
Запись выступления в Большом театре города Люксембург, март 2008 г.

Интересно

Тьерри Маланден - автор около 60 хореографических композиций, многие из которых вошли в репертуар Балета Флориды, балета Аспен Санта Фе, Сингапурского театра танца, Современного балета Каракаса, Каирской оперы, Королевского балета Фландрии, Королевского балета Валлонии, Балета театра Сан-Карло в Неаполе, Национального балета Бордо, Балета Рэна, Балета дю Нор, Национального балета Нанси, Балета Ниццы, Балета Нанта, Евробалета Люксембурга, Балета Государственного театра Карлсруэ, Тунисского национального балета, Капитолия Тулузы, проекта «Европа танцует», Молодого Балета Женевы, Школы Королевского балета Фландрии, балетных школ Лиона, и Парижа, Молодого балета Квебека и Международного молодого балета Канн.
Он также внёс существенный вклад в постановки опер совместно с Робертом Форчуном («Золушка», «Орфей в аду», «Кандид»), Питером Бюссом («Каприччио»), Альберто Фассини («Аида»), Жан-Луи Пишоном («Ричард, Львиное сердце», «Иродиада»), Фредериком Пино («Чёрная курица»).
После занятий с Моник Ле Дилли, Ренье Боном, Даниелем Франком, Жильбером Майером и Раймондом Франкетти, Тьерри Маландэн был приглашён в Балет Парижской Национальной оперы (в период работы там Виолетты Верди), в Балет Руана (с Жаном Сарелли) и в Балет Французского театра Нанси (с Жан-Альбером Картье и Элен Трайлин).
Лауреат нескольких хореографических конкурсов («Violine Prize» в 1984, Международного конкурса «Nyon Prize» в 1984 и 1985), он завершил карьеру танцовщика в 1986 году и создал компанию «Theatre Present». Она поначалу базировалась в Эланкуре в департаменте Ивлин, затем в Сент-Этьене под названием «Объединённая компания на Эспланаде Оперы Сент-Этьена». За время его двенадцатилетнего руководства компанией работы Маландена были отмечены призами ряда французских фондов и Призом «Новый талант SACD».
В 1988 году министр культуры Катрина Тротман назначила его директором Национального центра хореографии — Балета Биаррица.
В 2000 году Тьерри Маланден стал кавалером Ордена искусств и литературы Франции, а с 2001 года ему поручено художественное руководство Фестивалем танца «Время любить», проходящим в сентябре в Биаррице.
Качество видео: DVDRip
Формат/Контейнер: AVI
Видео кодек: XviD
Аудио кодек: AC3
Видео поток: MPEG-4 Visual, 1903 Кбит/сек, 704 x 400 (1.760), 25.000 fps, ~ 0.27 bit/pixel
Аудио поток: AC-3, 448 Кбит/сек, 2 канала, 48,0 КГц

MediaInfo

Общее
Полное имя : Malandain-Ballet.Biarritz.(2.iz.2).2008.DVDRip\Malandain-L.Amour.Sorcier.2008.DVDRip.avi
Формат : AVI
Формат/Информация : Audio Video Interleave
Размер файла : 487 Мбайт
Продолжительность : 28 м.
Общий поток : 2361 Кбит/сек
Программа кодирования : VirtualDubMod 1.5.10.2 (build 2540/release)
Видео
Идентификатор : 0
Формат : MPEG-4 Visual
Профиль формата : Advanced Simple@L5
Параметр BVOP формата : 3
Параметр QPel формата : Нет
Параметр GMC формата : Без точки перехода
Параметр матрицы формата : Default (MPEG)
Режим смешивания : Сжатый битовый поток
Идентификатор кодека : XVID
Идентификатор кодека/Подсказка : XviD
Продолжительность : 28 м.
Битрейт : 1903 Кбит/сек
Ширина : 704 пикс.
Высота : 400 пикс.
Соотношение сторон : 16:9
Частота кадров : 25,000 кадр/сек
Цветовое пространство : YUV
Подвыборка цветности : 4:2:0
Битовая глубина : 8 бит
Тип развёртки : Прогрессивная
Метод сжатия : С потерями
Бит/(Пиксели*Кадры) : 0.270
Размер потока : 393 Мбайт (81%)
Библиотека кодирования : XviD 1.2.1 (UTC 2008-12-04)
Аудио
Идентификатор : 1
Формат : AC-3
Формат/Информация : Audio Coding 3
Расширение режима : CM (complete main)
Идентификатор кодека : 2000
Продолжительность : 28 м.
Вид битрейта : Постоянный
Битрейт : 448 Кбит/сек
Канал(ы) : 2 канала(ов)
Расположение каналов : Front: L R
Частота : 48,0 КГц
Битовая глубина : 16 бит
Метод сжатия : С потерями
Размер потока : 92,4 Мбайт (19%)
Выравнивание : Соединение по промежуткам
Продолжительность промежутка : 40 мс. (1,00 видеокадр)
Время предзагрузки промежутка : 512 ms
Общее
Полное имя : Malandain-Ballet.Biarritz.(2.iz.2).2008.DVDRip\Malandain-Le.Portrait.de.l.Infante.2008.DVDRip.avi
Формат : AVI
Формат/Информация : Audio Video Interleave
Размер файла : 630 Мбайт
Продолжительность : 38 м.
Общий поток : 2308 Кбит/сек
Программа кодирования : VirtualDubMod 1.5.10.2 (build 2540/release)
Видео
Идентификатор : 0
Формат : MPEG-4 Visual
Профиль формата : Advanced Simple@L5
Параметр BVOP формата : 3
Параметр QPel формата : Нет
Параметр GMC формата : Без точки перехода
Параметр матрицы формата : Default (MPEG)
Режим смешивания : Сжатый битовый поток
Идентификатор кодека : XVID
Идентификатор кодека/Подсказка : XviD
Продолжительность : 38 м.
Битрейт : 1850 Кбит/сек
Ширина : 704 пикс.
Высота : 400 пикс.
Соотношение сторон : 16:9
Частота кадров : 25,000 кадр/сек
Цветовое пространство : YUV
Подвыборка цветности : 4:2:0
Битовая глубина : 8 бит
Тип развёртки : Прогрессивная
Метод сжатия : С потерями
Бит/(Пиксели*Кадры) : 0.263
Размер потока : 505 Мбайт (80%)
Библиотека кодирования : XviD 1.2.1 (UTC 2008-12-04)
Аудио
Идентификатор : 1
Формат : AC-3
Формат/Информация : Audio Coding 3
Расширение режима : CM (complete main)
Идентификатор кодека : 2000
Продолжительность : 38 м.
Вид битрейта : Постоянный
Битрейт : 448 Кбит/сек
Канал(ы) : 2 канала(ов)
Расположение каналов : Front: L R
Частота : 48,0 КГц
Битовая глубина : 16 бит
Метод сжатия : С потерями
Размер потока : 122 Мбайт (19%)
Выравнивание : Соединение по промежуткам
Продолжительность промежутка : 40 мс. (1,00 видеокадр)
Время предзагрузки промежутка : 512 ms

Сэмпл

«Колдовская любовь»: http://multi-up.com/458709
«Портрет инфанты»: http://multi-up.com/458711

Скриншоты




Показать сообщения:    

Текущее время: 07-Дек 23:21

Часовой пояс: UTC + 3


Вы не можете начинать темы
Вы не можете отвечать на сообщения
Вы не можете редактировать свои сообщения
Вы не можете удалять свои сообщения
Вы не можете голосовать в опросах
Вы не можете прикреплять файлы к сообщениям
Вы не можете скачивать файлы