Белоснежка - Анжелен Прельжокаж (Густав Малер) / Blanche Neige. Angelin Preljocaj (Gustav Mahler) [2008, Modern Ballet, Mezzo, DVDRip]


 

[Цитировать]

Белоснежка. Балет Анжелена Прельжокажа
Blanche Neige. Ballet Preljocaj
Год выпуска: 2008
Лейбл: MK2 TV / ARTE France / Mezzo
Страна-производитель: Франция
Жанр: Modern Ballet
Продолжительность: 01:30:15
Язык: Французский
Перевод: Не требуется
Субтитры: Нет
Режиссер/Хореограф: Шарль Жильбер, Анжелен Прельжокаж
Музыка: Густав Малер / Gustav Mahler
Костюмы: Жан-Поль Готье
Декорации: Тьерри Лепру
Исполнители:Нагиса Ширай, Сержио Диас, Селин Галли, Эмма Густафссон, Себастьен Дюран, Одри Эдельманн, Гаэль Шапа
Описание: Анжелен Прельжокаж - один из ярчайших хореографов современного танца, автор десятков оригинальных постановок. Уставший от бессюжетных балетов хореограф почувствовал необходимость рассказать свою историю. Либретто балета основано на сюжете сказки братьев Гримм, а сам балетмейстер лишь рассказал всем известную историю языком танца. Музыка к балету – сложная и изысканная мозаика из целого ряда симфоний Густава Малера. Хореограф считает, что братья Гримм и Малер, чья музыка напоминает и выражает силы природы, удивительно совпадают по настроению. «Музыка Малера стала олицетворением завершения эпохи романтизма. И братья Гримм – также часть немецкой романтической традиции», – замечает Анжелен Прельжокаж... Жан-Поль Готье далеко не в первый раз создаёт костюмы для театра и кино. Тонкая, деликатная работа кутюрье делает костюмы продолжением пластического языка героев, создавая сказочную атмосферу спектакля, не мешая танцу и вписываясь в декорации. Это костюмы - характеры, костюмы - маски, костюмы - символы. Изобретательному и неутомимому фантазёру мира высокой моды предоставилась возможность для захватывающей игры. Сюжет «Белоснежки» стал чёрно-белой историей о добре и зле. Добро – трепетная и юная Белоснежка, зло – Мачеха, агрессивная сексуальная, тиранящая весь дворец. Самая яркая сцена спектакля – отравление, в которой Мачеха душит падчерицу ядовитым красным яблочком. Хореограф сочинил неожиданный дуэтный танец двух женщин. Старую романтическую сказку Прельжокаж превратил в историю о страсти, о женской ревности. Он создаёт мрачную и жестокую атмосферу, но история Братьев Гримм всё равно остаётся светлой сказкой, где есть место и юмору, и лирике... Премьера спектакля состоялась в 2008 г. на Биеннале современного танца в Лионе (Biennale de la Dance). Его высоко оценили парижские балетоманы. Балет стал популярным и уже совершил турне по городам всего мира.
Запись премьерного показа в Большом театре Прованса, 25 сентября 2008 года.

Музыка

Густав Малер
» Symphony No. 9 Im Tempo eines gemachlichen Landlers
Daniel Barenboim, Staatskapelle Berlin. 2007
» Symphony No. 9 Adagio. Sehr langsam und noch zuruckhaltend
Simone Rattle, Berliner Philarmoniker. 2007
» Symphony No. 10 Andante – Adagio
Giuseppe Sinopoli, Philharmonia Orchestra. 1987
» Symphony No. 2 Allegro maestoso
Pierre Boulez, L'Orchestre Philharmonique de Vienne. 2006
» Symphony No. 2 Im Tempo des Scherzos
Pierre Boulez, L'Orchestre Philharmonique de Vienne / Christine Schafer, Michelle DeYoung. 2006
» Symphony No. 2 Andante moderato
Riccardo Chailly, Royal Concertgebouw Orchestra. 2002
» Symphony No. 1 Feierlich und gemessen, ohne zu schleppen
Pierre Boulez, Chicago Symphony Orchestra. 1999
» Symphony No. 3 Sehr langsam—Misterioso Partie II
Christia Ludwig, Leonard Bernstein, New York Philharmonic Orchestra. 1989
» Symphony No. 5 Sturmisch bewegt, mit grobter Vehemenz
Georg Solti, Chicago Symphony Orchestra. 1970
» Symphony No. 5 Scherzo
Georg Solti, Chicago Symphony Orchestra. 1970
» Symphony No. 6. Scherzo: Wuchtig
Bernard Haitink, Royal Concertgebouw Orchestra. 1969
» Symphony No. 6. Finale: Sostenuto - Allegro moderato - Allegro energico
Bernard Haitink, Royal Concertgebouw Orchestra. 1969
» Symphony No. 3 Comodo (Scherzando) Partie II
Leonard Bernstein, New York Philharmonic Orchestra. 1989
» Symphony No. 8 Pui Mosso 2 Partie
Leonard Bernstein, L'Orchestre Philharmonique de Vienne. 1991
» Symphony No. 2 Im Tempo des Scherzos
Bernard Haitink, Royal Concertgebouw Orchestra. 1968
» Symphony No. 5 Adagietto Part III
Riccardo Chailly, Royal Concertgebouw Orchestra. 1998
» Symphony No. 10 Purgatorio. Allegro moderato & Symphony No. 4 Ruhevoll, poco adagio
Michael Gielen, L'Orchestre symphonique de la SWR de Baden-Baden et Freiburg-Breisgau
Дополнительная музыка - 79D
Качество видео: DVDRip
Формат/Контейнер: AVI
Видео кодек: XviD
Аудио кодек: AC3
Видео поток: MPEG-4 Visual, 1843 Кбит/сек, 704 x 400 (1.760), 25.000 fps, 0.26 bit/pixel
Аудио поток: AC-3, 448 Кбит/сек, 6 каналов, 48,0 КГц

MediaInfo

Общее
Полное имя : D:\CLASSIC\Blanche.Neige-Ballet.Preljocaj.2008.DVDRip.avi
Формат : AVI
Формат/Информация : Audio Video Interleave
Размер файла : 1,45 Гбайт
Продолжительность : 1 ч. 30 м.
Общий поток : 2300 Кбит/сек
Программа кодирования : VirtualDubMod 1.5.10.2 (build 2540/release)
Видео
Идентификатор : 0
Формат : MPEG-4 Visual
Профиль формата : Advanced Simple@L5
Параметр BVOP формата : 3
Параметр QPel формата : Нет
Параметр GMC формата : Без точки перехода
Параметр матрицы формата : Default (MPEG)
Режим смешивания : Сжатый битовый поток
Идентификатор кодека : XVID
Идентификатор кодека/Подсказка : XviD
Продолжительность : 1 ч. 30 м.
Битрейт : 1843 Кбит/сек
Ширина : 704 пикс.
Высота : 400 пикс.
Соотношение сторон : 16:9
Частота кадров : 25,000 кадр/сек
Цветовое пространство : YUV
Подвыборка цветности : 4:2:0
Битовая глубина : 8 бит
Тип развёртки : Прогрессивная
Метод сжатия : С потерями
Бит/(Пиксели*Кадры) : 0.262
Размер потока : 1,16 Гбайт (80%)
Библиотека кодирования : XviD 1.2.1 (UTC 2008-12-04)
Аудио
Идентификатор : 1
Формат : AC-3
Формат/Информация : Audio Coding 3
Расширение режима : CM (complete main)
Идентификатор кодека : 2000
Продолжительность : 1 ч. 30 м.
Вид битрейта : Постоянный
Битрейт : 448 Кбит/сек
Канал(ы) : 6 канала(ов)
Расположение каналов : Front: L C R, Side: L R, LFE
Частота : 48,0 КГц
Битовая глубина : 16 бит
Метод сжатия : С потерями
Размер потока : 289 Мбайт (19%)
Выравнивание : Соединение по промежуткам
Продолжительность промежутка : 40 мс. (1,00 видеокадр)
Время предзагрузки промежутка : 512 ms

Скриншоты




Показать сообщения:    

Текущее время: 04-Дек 06:57

Часовой пояс: UTC + 3


Вы не можете начинать темы
Вы не можете отвечать на сообщения
Вы не можете редактировать свои сообщения
Вы не можете удалять свои сообщения
Вы не можете голосовать в опросах
Вы не можете прикреплять файлы к сообщениям
Вы не можете скачивать файлы