Игорь Стравинский - Пульчинелла (Секрет Пульчинеллы) / Pulcinella (Il segreto di Pulcinella) (Carlo Ippolito, Bruno Steiner) [1997, Modern Ballet, DVDRip]


 

[Цитировать]

Игорь Стравинский - Пульчинелла
Pulcinella
Год выпуска: 1997
Лейбл: Televisione Svizzera, TSI
Страна-производитель: Италия
Жанр: Modern Ballet
Продолжительность: 00:42:59
Язык: Итальянский
Перевод: Отсутствует
Субтитры: Нет
Оркестр: Оркестр итальянской Швейцарии
Дирижер: Дан Му-хай
Режиссер/Хореограф: Бруно Штайнер, Карло Ипполито
Исполнители: Сабрина Камера, Давид Каули, Йохен Хекманн, Адриана Мортеллити, Джулия Вирт, Нунцио Верденеро
Описание: В начале XX столетия Дягилев обнаружил в итальянских архивах и Библиотеке Британского музея две неизвестные комические оперы итальянского композитора XVIII века Перголези и его же 12 сонат для двух скрипок и баса, кантату, инструментальную сюиту, гавот и симфонию для виолончели и контрабаса. И предложил их Стравинскому, который особой любовью к музыке Перголези не отличался. Даже, можно сказать, относился к ней с особой нелюбовью... Однако, предложенные Дягилевым рукописи ему-таки понравились - правда, материалы этих рукописей Стравинский переработал на свой лад. Так, в 1919 году, родился на свет балет «Пульчинелла». Балет, музыка которого целиком основана на темах Джованни Баттисты Перголези. Балет, приведший в неистовство всех архивариусов от музыки. «Кощунство! Классики принадлежат нам, оставьте их в покое!» - требовали они. Ответ композитора был прост: «Вы преклоняетесь, а я люблю». Кроме того, в Неаполе найдена была рукопись комедийного сценария XVIII века. На его основе и выросла драматургия балета о любимом герое неаполитанской улицы Пульчинелле с длинным, уныло повисшим красным носом. О жене его Пимпинелле, о его поклонницах Росетте и Пруденце, о ревнивых кавалерах молодых красавиц, о мнимой смерти Пульчинеллы, его весёлом воскрешении и о трёх свадьбах, сыгранных в один день и час.
Как нетрудно догадаться, бессмертный Пульчинелла со товарищи (и со товарки) родом из комедии dell'arte, народной итальянской комедии масок, персонажи которой с начала XVI века пленяли воображение всей Европы. По сути, балет Стравинского представляет собой новый вариант рассказа о бессмертии Пульчинеллы. Меланхоличного, но в то же время шутливого ловкача, философа и мечтателя. Неутомимого любовника, которого жена снимает с другой женщины - в буквальном смысле слова. Которого убивают оскорблённые соперники, но герой неизменно воскресает. Его друзья и соперники не прочь выступить под его личиной, используя донжуановскую репутацию, на которую девушки слетаются, как мухи на мёд... Балет «Пульчинелла» положил начало новому длительному периоду в творчестве Игоря Стравинского - периоду неоклассицизма. А именно, интерпретации различных музыкальных направлений, переосмысления музыкальных стилей прошлых веков, медитации над классическим объектом. Впервые «Пульчинелла» был поставлен в Париже 15 мая 1920 года балетмейстером Леонидом Мясиным с декорациями Пикассо.

Качество видео: DVDRip
Формат/Контейнер: AVI
Видео кодек: XviD
Аудио кодек: AC3
Видео поток: MPEG-4 Visual, 1815 Кбит/сек, 704 x 528 (1.333), 25.000 fps, 0.20 bit/pixel
Аудио поток: AC-3, 448 Кбит/сек, 6 каналов, 48,0 КГц

MediaInfo

Общее
Полное имя : Stravinskiy-Pulchinella.1997.DVDRip.avi
Формат : AVI
Формат/Информация : Audio Video Interleave
Размер файла : 699 Мбайт
Продолжительность : 42 м.
Общий поток : 2273 Кбит/сек
Программа кодирования : VirtualDubMod 1.5.10.2 (build 2540/release)
Видео
Идентификатор : 0
Формат : MPEG-4 Visual
Профиль формата : Advanced Simple@L5
Параметр BVOP формата : 3
Параметр QPel формата : Нет
Параметр GMC формата : Без точки перехода
Параметр матрицы формата : Default (MPEG)
Режим смешивания : Сжатый битовый поток
Идентификатор кодека : XVID
Идентификатор кодека/Подсказка : XviD
Продолжительность : 42 м.
Битрейт : 1815 Кбит/сек
Ширина : 704 пикс.
Высота : 528 пикс.
Соотношение сторон : 4:3
Частота кадров : 25,000 кадр/сек
Цветовое пространство : YUV
Подвыборка цветности : 4:2:0
Битовая глубина : 8 бит
Тип развёртки : Прогрессивная
Метод сжатия : С потерями
Бит/(Пиксели*Кадры) : 0.195
Размер потока : 558 Мбайт (80%)
Библиотека кодирования : XviD 1.2.1 (UTC 2008-12-04)
Аудио
Идентификатор : 1
Формат : AC-3
Формат/Информация : Audio Coding 3
Расширение режима : CM (complete main)
Идентификатор кодека : 2000
Продолжительность : 42 м.
Вид битрейта : Постоянный
Битрейт : 448 Кбит/сек
Канал(ы) : 6 канала(ов)
Расположение каналов : Front: L C R, Side: L R, LFE
Частота : 48,0 КГц
Битовая глубина : 16 бит
Метод сжатия : С потерями
Размер потока : 138 Мбайт (20%)
Выравнивание : Соединение по промежуткам
Продолжительность промежутка : 40 мс. (1,00 видеокадр)
Время предзагрузки промежутка : 512 ms

Скриншоты




Показать сообщения:    

Текущее время: 11-Дек 01:22

Часовой пояс: UTC + 3


Вы не можете начинать темы
Вы не можете отвечать на сообщения
Вы не можете редактировать свои сообщения
Вы не можете удалять свои сообщения
Вы не можете голосовать в опросах
Вы не можете прикреплять файлы к сообщениям
Вы не можете скачивать файлы