Арво Пярт - Сон в бамбуковой роще (Линь Хуай-минь) "Юньмэнь" / Arvo Part - Bamboo Dream (Lin Hwai-min) Cloud Gate Dance Theatre[2002, современный балет, DVDRip]


 

[Цитировать]

Сон в бамбуковой роще / Bamboo Dream
Год выпуска: 2002
Страна-производитель: Тайвань
Жанр: современный балет
Продолжительность: 01:03:02
Режиссер/Хореограф: Линь Хуай-минь / Lin Hwai-min
Исполнители: Cloud Gate Dance Theatre Of Taiwan
Музыка: Арво Пярт / Arvo Part
Исполнители музыки:
Fratres (version for violin and piano)
Gidon Kremer (violin), Keith Jarrett (piano)
Fratres (version for 12 cellos)
The 12 Cellists of the Berlin Philharmonic Orchestra
Darf ich…
Gidon Kremer (violin), Kremerata Baltica
Cantus in Memory of Benjamin Britten
Staatsorchester Stuttgart, Dennis Russell Davies (conductor)
Tabula Rasa
Gidon Kremer (violin), Tatjana Grindenko (violin)
Alfred Schnittke (prepared piano)
Lithuanian Chamber Orchestra, Saulus Sondeckis (conductor)
introductory music played by Huang Sheng-Kai (flute)
Описание: Ошеломляющая танцевальная программа, навеянная вечнозелеными стеблями бамбука. Воспетый китайскими поэтами, бамбук является символом чистоты и простого изящества. Множество историй и старинных верований связано в восточной мифологии с бамбуком. В китайском фольклоре бамбук является пристанищем богов, служит убежищем для умных людей в смутные и опасные времена. Исполняется под импровизации китайской флейтистки и музыку эстонского композитора Арво Пярта. Прекрасное сочетание традиционных движений китайской оперы, искусства медитации, древних боевых искусств с балетными и современными танцевальными техниками . Именно соединение ростков старинного знания с современным танцем и классическим балетом стало почвой, на которой Лин Хвай-мин построил свой театр и добился немалого успеха.
Качество видео: DVDRip
Формат/Контейнер: AVI
Видео кодек: XviD
Аудио кодек: AC3
Видео поток: Xvid 720x416 29.97fps 2843kbps [Video 0]
Аудио поток: Dolby AC3 48000Hz 6ch 448kbps [Audio 1]

Доп. информация

СОН В БАМБУКОВОЙ РОЩЕ:
1. Утренний туман.
2. Веет весенний ветер.
3. Жаркое лето.
4. Осенний путь.
5. Дождь перестал.
6. В полночь.
7. Снег.

MediaInfo

Format : AVI
Format/Info : Audio Video Interleave
File size : 1.45 GiB
Duration : 1h 3mn
Overall bit rate : 3 304 Kbps
Writing application : VirtualDubModRus 1.5.10.2 (build 2540/release)
Writing library : VirtualDubMod build 2540/release
Video
ID : 0
Format : MPEG-4 Visual
Format profile : Advanced Simple@L5
Format settings, BVOP : No
Format settings, QPel : No
Format settings, GMC : No warppoints
Format settings, Matrix : Custom
Codec ID : XVID
Codec ID/Hint : XviD
Duration : 1h 3mn
Bit rate : 2 844 Kbps
Width : 720 pixels
Height : 416 pixels
Display aspect ratio : 16:9
Frame rate : 29.970 fps
Color space : YUV
Chroma subsampling : 4:2:0
Bit depth : 8 bits
Scan type : Progressive
Bits/(Pixel*Frame) : 0.317
Stream size : 1.25 GiB (86%)
Writing library : XviD 1.2.1 (UTC 2008-12-04)
Audio
ID : 1
Format : AC-3
Format/Info : Audio Coding 3
Mode extension : ME (music and effects)
Codec ID : 2000
Duration : 1h 3mn
Bit rate mode : Constant
Bit rate : 448 Kbps
Channel(s) : 6 channels
Channel positions : Front: L C R, Side: L R, LFE
Sampling rate : 48.0 KHz
Bit depth : 16 bits
Video delay : 306ms
Stream size : 202 MiB (14%)
Alignment : Split accross interleaves
Interleave, duration : 33 ms (1.00 video frame)
Interleave, preload duration : 500 ms

Скриншоты




Показать сообщения:    

Текущее время: 10-Дек 00:23

Часовой пояс: UTC + 3


Вы не можете начинать темы
Вы не можете отвечать на сообщения
Вы не можете редактировать свои сообщения
Вы не можете удалять свои сообщения
Вы не можете голосовать в опросах
Вы не можете прикреплять файлы к сообщениям
Вы не можете скачивать файлы