Семейные портреты (Линь Хуай-минь) "Юньмэнь" / Portrait of the Families (Lin Hwai-min) Cloud Gate Dance Theatre [2002, современный балет, DVDRip]


 

[Цитировать]

Семейные портреты / Portrait of the Families
Год выпуска: 2002
Страна-производитель: Тайвань
Жанр: современный балет
Продолжительность: 01:42:28
Режиссер/Хореограф: Линь Хуай-минь / Lin Hwai-min
Исполнители: балетная труппа Cloud Gate Dance Theatre
Описание: История Тайваня полна драматических событий: колонизаций, оккупаций, революций, культурных и межэтнических противоречий. В 1997-ом году Линь Хвай-Мин решил посвятить один из спектаклей его замечательного театра "Юньмэнь" темным страницам недавней тайваньской истории. Так возникли "Семейные портреты", смесь современного и фольклорного танца, пантомимы, пластического театра и документалистики.
Рип и описание с этой раздачи: http://teatrix.ru/viewtopic.php?t=833
Спасибо Lexa58
Качество видео: DVDRip
Формат/Контейнер: AVI
Видео кодек: XviD
Аудио кодек: AC3
Видео поток: Xvid 560x416 25.00fps 1457kbps [Video 0]
Аудио поток: Dolby AC3 48000Hz 6ch 448kbps [Audio 1]

Доп. информация

СЕМЕЙНЫЕ ПОРТРЕТЫ
1. Танец льва
2. Купание
3. Невеста
4. Женщина в белом
5. Мытье волос
6. Пеон
7. Умывание (I)
8. Молящаяся женшина
9. Девушка с длинными волосами
10. Плавание
11. Чистка зубов
12. Женщина в черном
13. Священная повозка
14. Танец-транс
15. Сожжение жертвенной лодки
16. Засада
17. Умывание (II)
18. Плывущие фонарики в память усопших

MediaInfo

Format : AVI
Format/Info : Audio Video Interleave
File size : 1.37 GiB
Duration : 1h 42mn
Overall bit rate : 1 911 Kbps
Writing application : VirtualDubMod 1.5.4.1 (build 2178/release)
Writing library : VirtualDubMod build 2178/release
Video
ID : 0
Format : MPEG-4 Visual
Format profile : Advanced Simple@L5
Format settings, BVOP : Yes
Format settings, QPel : No
Format settings, GMC : No warppoints
Format settings, Matrix : Custom
Codec ID : XVID
Codec ID/Hint : XviD
Duration : 1h 42mn
Bit rate : 1 457 Kbps
Width : 560 pixels
Height : 416 pixels
Display aspect ratio : 4:3
Frame rate : 25.000 fps
Color space : YUV
Chroma subsampling : 4:2:0
Bit depth : 8 bits
Scan type : Progressive
Bits/(Pixel*Frame) : 0.250
Stream size : 1.04 GiB (76%)
Writing library : XviD 1.2.0.dev47 (UTC 2006-11-01)
Audio
ID : 1
Format : AC-3
Format/Info : Audio Coding 3
Mode extension : CM (complete main)
Codec ID : 2000
Duration : 1h 42mn
Bit rate mode : Constant
Bit rate : 448 Kbps
Channel(s) : 6 channels
Channel positions : Front: L C R, Side: L R, LFE
Sampling rate : 48.0 KHz
Bit depth : 16 bits
Video delay : 333ms
Stream size : 327 MiB (23%)
Alignment : Split accross interleaves
Interleave, duration : 96 ms (2.41 video frames)
Interleave, preload duration : 96 ms

Скриншоты




Показать сообщения:    

Текущее время: 04-Дек 23:22

Часовой пояс: UTC + 3


Вы не можете начинать темы
Вы не можете отвечать на сообщения
Вы не можете редактировать свои сообщения
Вы не можете удалять свои сообщения
Вы не можете голосовать в опросах
Вы не можете прикреплять файлы к сообщениям
Вы не можете скачивать файлы