Тоска по дому - мои песни (Линь Хуай-минь) "Юньмэнь" / My Nostalgia - My Songs (Lin Hwai-min) Cloud Gate Dance Theatre [2004, современный балет, DVDRip]


 

[Цитировать]

Тоска по дому - мои песни / My Nostalgia - My Songs
Год выпуска: 2004
Страна-производитель: Тайвань
Жанр: современный балет
Продолжительность: 00:48:03
Режиссер/Хореограф: Линь Хуай-минь / Lin Hwai-min
Исполнители: Cloud Gate Dance Theatre Of Taiwan
Описание: По заверениям Лин Хвай-Мина, эстрадная песня возможно и не является высоким искусством, но она дает людям радость. В этой ранней работе театра "Юньмэнь" жизнь молодых людей в послевоенном Тайване отображена под звуки старомодной эстрады. Съемкой спектакля руководил не более, не менее, чем Кристофер Дойл (известный по операторской работе в фильмах Вонг Карвая).

MediaInfo

Format : AVI
Format/Info : Audio Video Interleave
File size : 686 MiB
Duration : 48mn 2s
Overall bit rate : 1 995 Kbps
Writing application : VirtualDubModRus 1.5.10.2 (build 2540/release)
Writing library : VirtualDubMod build 2540/release
Video
ID : 0
Format : MPEG-4 Visual
Format profile : Advanced Simple@L5
Format settings, BVOP : Yes
Format settings, QPel : No
Format settings, GMC : No warppoints
Format settings, Matrix : Custom
Codec ID : XVID
Codec ID/Hint : XviD
Duration : 48mn 2s
Bit rate : 1 793 Kbps
Width : 720 pixels
Height : 544 pixels
Display aspect ratio : 4:3
Frame rate : 25.000 fps
Color space : YUV
Chroma subsampling : 4:2:0
Bit depth : 8 bits
Scan type : Progressive
Bits/(Pixel*Frame) : 0.183
Stream size : 616 MiB (90%)
Writing library : XviD 1.2.1 (UTC 2008-12-04)
Audio
ID : 1
Format : AC-3
Format/Info : Audio Coding 3
Mode extension : CM (complete main)
Codec ID : 2000
Duration : 48mn 2s
Bit rate mode : Constant
Bit rate : 192 Kbps
Channel(s) : 2 channels
Channel positions : Front: L R
Sampling rate : 48.0 KHz
Bit depth : 16 bits
Stream size : 66.0 MiB (10%)
Alignment : Split accross interleaves
Interleave, duration : 40 ms (1.00 video frame)
Interleave, preload duration : 500 ms
Качество видео: DVDRip
Формат/Контейнер: AVI
Видео кодек: XviD
Аудио кодек: AC3
Видео поток: Xvid 720x544 25.00fps 1793kbps [Video 0]
Аудио поток: Dolby AC3 48000Hz stereo 192kbps [Audio 1]

Скриншоты








Показать сообщения:    

Текущее время: 09-Дек 16:37

Часовой пояс: UTC + 3


Вы не можете начинать темы
Вы не можете отвечать на сообщения
Вы не можете редактировать свои сообщения
Вы не можете удалять свои сообщения
Вы не можете голосовать в опросах
Вы не можете прикреплять файлы к сообщениям
Вы не можете скачивать файлы