Волшебный мир балета. Буря (Пётр Чайковский) (Наталья Рыженко, Владимир Васильев, Михаил Лавровский, Илзе Лиепа, Владимир Малахов) [1991, Ballet, DVDRip]


 

[Цитировать]

Буря
Волшебный мир балета
Год выпуска: 1991
Лейбл: ВПТО «Видеофильм», Студия «Артвидео»
Страна-производитель: Россия
Жанр: Балет-фантазия
Продолжительность: 00:52:55
Язык: Русский
Режиссер/Хореограф: Наталья Рыженко
Исполнители: Владимир Васильев, Надежда Скоркина, Михаил Лавровский, Илзе Лиепа, Владимир Малахов, Алексей Ищук, Виктор Дворецкий, Дмитрий Стрижков, Ася Эдуардова, Наталья Козел, Анна Плешакова, Лариса Рудыка
Большой симфонический оркестр Гостелерадио СССР
Дирижер - Владимир Федосеев

Описание: Балет-фантазия по мотивам романтической комедии Уильяма Шекспира расскажет волшебную повесть о страшной буре, разметавшей корабли о великом Просперо и его волшебных книгах, о любви Миранды и Фернандо, и о счастливом конце этой романтической истории...
В фильме использована музыка фантазии для оркестра «Буря» Петра Ильича Чайковского.

Содержание

Фильм 1. Сказка Просперо (00:25:48)
Фильм 2. Сказка Миранды (00:27:07)
Качество видео: DVDRip
Формат/Контейнер: AVI
Видео кодек: XviD
Аудио кодек: AC3
Видео поток: MPEG-4 Visual, ~ 1900 Кбит/сек, 704 x 528 (1.333), 25.000 fps, ~ 0.21 bit/pixel
Аудио поток: AC-3, 384 Кбит/сек, 2 канала, 48,0 КГц

Сэмпл

Фильм 1. http://multi-up.com/427712
Фильм 2. http://multi-up.com/427714

MediaInfo

Общее
Полное имя : Burya.(2.iz.2).1991.DVDRip\Burya.(1.iz.2).Skazka.Prospero.1991.DVDRip.avi
Формат : AVI
Формат/Информация : Audio Video Interleave
Размер файла : 440 Мбайт
Продолжительность : 25 м.
Общий поток : 2383 Кбит/сек
Программа кодирования : VirtualDubMod 1.5.10.2 (build 2540/release)
Видео
Идентификатор : 0
Формат : MPEG-4 Visual
Профиль формата : Advanced Simple@L5
Параметр BVOP формата : 2
Параметр QPel формата : Нет
Параметр GMC формата : Без точки перехода
Параметр матрицы формата : Default (MPEG)
Режим смешивания : Сжатый битовый поток
Идентификатор кодека : XVID
Идентификатор кодека/Подсказка : XviD
Продолжительность : 25 м.
Битрейт : 1989 Кбит/сек
Ширина : 704 пикс.
Высота : 528 пикс.
Соотношение сторон : 4:3
Частота кадров : 25,000 кадр/сек
Цветовое пространство : YUV
Подвыборка цветности : 4:2:0
Битовая глубина : 8 бит
Тип развёртки : Прогрессивная
Метод сжатия : С потерями
Бит/(Пиксели*Кадры) : 0.214
Размер потока : 367 Мбайт (83%)
Библиотека кодирования : XviD 1.2.1 (UTC 2008-12-04)
Аудио
Идентификатор : 1
Формат : AC-3
Формат/Информация : Audio Coding 3
Расширение режима : CM (complete main)
Идентификатор кодека : 2000
Продолжительность : 25 м.
Вид битрейта : Постоянный
Битрейт : 384 Кбит/сек
Канал(ы) : 2 канала(ов)
Расположение каналов : Front: L R
Частота : 48,0 КГц
Битовая глубина : 16 бит
Метод сжатия : С потерями
Размер потока : 70,9 Мбайт (16%)
Выравнивание : Соединение по промежуткам
Продолжительность промежутка : 40 мс. (1,00 видеокадр)
Время предзагрузки промежутка : 512 ms
Общее
Полное имя : Burya.(2.iz.2).1991.DVDRip\Burya.(2.iz.2).Skazka.Mirandi.1991.DVDRip.avi
Формат : AVI
Формат/Информация : Audio Video Interleave
Размер файла : 440 Мбайт
Продолжительность : 27 м.
Общий поток : 2268 Кбит/сек
Программа кодирования : VirtualDubMod 1.5.10.2 (build 2540/release)
Видео
Идентификатор : 0
Формат : MPEG-4 Visual
Профиль формата : Advanced Simple@L5
Параметр BVOP формата : 2
Параметр QPel формата : Нет
Параметр GMC формата : Без точки перехода
Параметр матрицы формата : Default (MPEG)
Режим смешивания : Сжатый битовый поток
Идентификатор кодека : XVID
Идентификатор кодека/Подсказка : XviD
Продолжительность : 27 м.
Битрейт : 1874 Кбит/сек
Ширина : 704 пикс.
Высота : 528 пикс.
Соотношение сторон : 4:3
Частота кадров : 25,000 кадр/сек
Цветовое пространство : YUV
Подвыборка цветности : 4:2:0
Битовая глубина : 8 бит
Тип развёртки : Прогрессивная
Метод сжатия : С потерями
Бит/(Пиксели*Кадры) : 0.202
Размер потока : 364 Мбайт (83%)
Библиотека кодирования : XviD 1.2.1 (UTC 2008-12-04)
Аудио
Идентификатор : 1
Формат : AC-3
Формат/Информация : Audio Coding 3
Расширение режима : CM (complete main)
Идентификатор кодека : 2000
Продолжительность : 27 м.
Вид битрейта : Постоянный
Битрейт : 384 Кбит/сек
Канал(ы) : 2 канала(ов)
Расположение каналов : Front: L R
Частота : 48,0 КГц
Битовая глубина : 16 бит
Метод сжатия : С потерями
Размер потока : 74,5 Мбайт (17%)
Выравнивание : Соединение по промежуткам
Продолжительность промежутка : 40 мс. (1,00 видеокадр)
Время предзагрузки промежутка : 512 ms

Скриншоты




Показать сообщения:    

Текущее время: 08-Дек 01:21

Часовой пояс: UTC + 3


Вы не можете начинать темы
Вы не можете отвечать на сообщения
Вы не можете редактировать свои сообщения
Вы не можете удалять свои сообщения
Вы не можете голосовать в опросах
Вы не можете прикреплять файлы к сообщениям
Вы не можете скачивать файлы