Фредерик Шопен - Дама с камелиями (Джон Ноймайер, Михаэль Шмидсдорф, Аньес Летестю, Жозе Мартинез, Карл Пакетт) / Frederick Chopin - La Dame aux camelias (Die Kameliendame) (Neumeier, Schmidtsdorff, Letestu) [2008, Ballet, DVDRip]


 

[Цитировать]

Фредерик Шопен - Дама с камелиями
Frederick Chopin - La Dame aux camelias
Год выпуска: 2008
Лейбл: Opus Arte
Страна-производитель: Франция
Жанр: Ballet
Продолжительность: 02:11:33
Перевод: Не требуется
Балет и оркестр: Парижской национальной оперы
Дирижер: Михаэль Шмидсдорф
Режиссер/Хореограф: Джон Ноймайер
Исполнители: Аньес Летестю, Стефан Бюйон, Микаэль Денар, Дороти Жильбер, Дельфин Муссен, Жозе Мартинез, Эва Гринзтаж, Карл Пакетт
Описание: Премьера спектакля прошла в Штутгарте в 1978 году с Марсией Хайде в роли Маргариты. Именно с него в началась мировая слава хореографа Джона Ноймайера. В спектакле соединились популярный сюжет, мелодичная музыка Шопена, роскошные исторические костюмы и декорации и изобилие красивых танцев. В Парижской Опере Ноймайер поставил «Даму с камелиями» специально для Аньес Летестю, которая была принята в труппу ещё при Рудольфе Нуриеве. Это одна из самых красивых Маргарит, которая становится настоящей парижской куртизанкой на сцене. А балет, как никакой другой, несёт в себе настоящий парижский дух...
«Даму с камелиями» хореограф Ноймайер выстроил на приёме флэшбека: каждое действие спектакля начинается сценой распродажи имущества покойной Маргариты - в пустеющей комнате Арман Дюваль, рыдая в объятиях отцах, вспоминает историю своей любви. Три гигантских, очень разных по внутреннему состоянию героев любовных дуэта становятся кульминацией каждого акта; вокруг них концентрируются массовые сцены - спектакль в парижском Варьете, бал-маскарад в особняке героини, пикник в её загородном доме, прогулка на Елисейских Полях. К «реальным» персонажам Дюма-сына хореограф прибавил лишь любимые балетом «видения»: героине то и дело мерещится Манон Леско (историю которой разыгрывают артисты на спектакле в Варьете) - с этой куртизанкой XVIII века отождествляет себя куртизанка XIX столетия... Труппе Парижской оперы «Дама с камелиями» чрезвычайно к лицу. Никто, кроме парижанок, не способен так непринуждённо танцевать в роскошных платьях с кринолинами, обмахиваться веерами, носить драгоценности, убивать взглядом соперниц и обволакивать мужчин. Никто, кроме парижан, не сможет чувствовать себя так естественно во фраках с балетными трико вместо панталон, так поправлять манжеты, дарить букеты, целовать руку даме. «Живой» Шопен (а некоторые сцены балета идут под соло рояля) придаёт куртуазной атмосфере спектакля пленительную достоверность.

Запись выступления в Парижском дворце Гарнье, июль 2008 год. Релиз на DVD - 2009 год.Качество видео: DVDRip
Формат/Контейнер: AVI
Видео кодек: XviD
Аудио кодек: AC3
Видео поток: MPEG-4 Visual, 1914 Кбит/сек, 704 x 400 (1.760), 29.970 fps, 0.23 bit/pixel
Аудио поток: AC-3, 448 Кбит/сек, 6 каналов, 48,0 КГц

MediaInfo

Общее
Полное имя : Chopin-La.Dame.aux.camelias.2008.DVDRip.avi
Формат : AVI
Формат/Информация : Audio Video Interleave
Профиль формата : OpenDML
Размер файла : 2,18 Гбайт
Продолжительность : 2 ч. 11 м.
Общий поток : 2374 Кбит/сек
Программа кодирования : VirtualDubMod 1.5.4.1 (build 2178/release)
Видео
Идентификатор : 0
Формат : MPEG-4 Visual
Профиль формата : Advanced Simple@L5
Параметр BVOP формата : 2
Параметр QPel формата : Нет
Параметр GMC формата : Без точки перехода
Параметр матрицы формата : Default (MPEG)
Режим смешивания : Сжатый битовый поток
Идентификатор кодека : XVID
Идентификатор кодека/Подсказка : XviD
Продолжительность : 2 ч. 11 м.
Битрейт : 1914 Кбит/сек
Ширина : 704 пикс.
Высота : 400 пикс.
Соотношение сторон : 16:9
Частота кадров : 29,970 кадр/сек
Цветовое пространство : YUV
Подвыборка цветности : 4:2:0
Битовая глубина : 8 бит
Тип развёртки : Прогрессивная
Метод сжатия : С потерями
Бит/(Пиксели*Кадры) : 0.227
Размер потока : 1,76 Гбайт (81%)
Библиотека кодирования : XviD 1.2.1 (UTC 2008-12-04)
Аудио
Идентификатор : 1
Формат : AC-3
Формат/Информация : Audio Coding 3
Расширение режима : CM (complete main)
Идентификатор кодека : 2000
Продолжительность : 2 ч. 10 м.
Вид битрейта : Постоянный
Битрейт : 448 Кбит/сек
Канал(ы) : 6 канала(ов)
Расположение каналов : Front: L C R, Side: L R, LFE
Частота : 48,0 КГц
Битовая глубина : 16 бит
Метод сжатия : С потерями
Размер потока : 419 Мбайт (19%)
Выравнивание : Соединение по промежуткам
Продолжительность промежутка : 34 мс. (1,01 видеокадр)
Время предзагрузки промежутка : 512 ms

Скриншоты




Показать сообщения:    

Текущее время: 08-Дек 12:56

Часовой пояс: UTC + 3


Вы не можете начинать темы
Вы не можете отвечать на сообщения
Вы не можете редактировать свои сообщения
Вы не можете удалять свои сообщения
Вы не можете голосовать в опросах
Вы не можете прикреплять файлы к сообщениям
Вы не можете скачивать файлы