Игорь Стравинский - Жар-Птица / Igor Stravinsky - Firebird (Joseph Eder, Royston Maldoom) (Ройстон Малдум, Антон Полтевский, Василиса Ковалёва, Ксения Кириллова)[2010 г., Балет, TVRip]


 

[Цитировать]

И.Стравинский "Жар-Птица"
Год выпуска: 2010
Жанр: Балет
Продолжительность: 51 мин
Режиссер: Джозеф Эдер
В ролях: дирижер - Михаил Плетнев
Антон Полтевский
Василиса Ковалёва
Ксения Кириллова
и другие
Описание: "Жар-птица" - постановка, которую культовый британский хореограф Ройтон Малдум осуществил с огромным успехом на многих европейских сценах. На открытие Второго фестиваля РНО знаменитый на весь мир хореограф впервые дебютировал в России на сцене Концертного зала им. Чайковского. Участниками его балета стали московские дети и подростки, без первоначальной хореографической подготовки.
Музыка балета Игоря Стравинского прозвучала в исполнении Российского национального оркестра.
Здесь можно посмотреть онлайн

Видео

:ID : 0
Format : MPEG-4 Visual
Format profile : Simple@L3
Format settings, BVOP : No
Format settings, QPel : No
Format settings, GMC : No warppoints
Format settings, Matrix : Default (H.263)
Codec ID : XVID
Codec ID/Hint : XviD
Duration : 51mn 16s
Bit rate : 2 000 Kbps
Width : 720 pixels
Height : 576 pixels
Display aspect ratio : 5:4
Frame rate : 25.000 fps
Standard : PAL
Color space : YUV
Chroma subsampling : 4:2:0
Bit depth : 8 bits
Scan type : Progressive
Bits/(Pixel*Frame) : 0.193
Stream size : 733 MiB (88%)
Writing library : XviD 1.2.1 (UTC 2008-12-04)

Аудио:

ID : 1
Format : MPEG Audio
Format version : Version 1
Format profile : Layer 3
Mode : Joint stereo
Mode extension : MS Stereo
Codec ID : 55
Codec ID/Hint : MP3
Duration : 51mn 16s
Bit rate mode : Variable
Bit rate : 256 Kbps
Channel(s) : 2 channels
Sampling rate : 44.1 KHz
Stream size : 94.6 MiB (11%)
Alignment : Aligned on interleaves
Interleave, duration : 26 ms (0.65 video frame)
Interleave, preload duration : 582 ms
Writing library : LAME3.98.2ЄЄЄЄЄЄЄЄЄЄ

Скриншоты






Показать сообщения:    

Текущее время: 06-Дек 13:14

Часовой пояс: UTC + 3


Вы не можете начинать темы
Вы не можете отвечать на сообщения
Вы не можете редактировать свои сообщения
Вы не можете удалять свои сообщения
Вы не можете голосовать в опросах
Вы не можете прикреплять файлы к сообщениям
Вы не можете скачивать файлы