Новогоднее кабаре (Сусанна Цирюк) [2011 г., Беларусь, гала-концерт, WEB-DLRip] Белорусский государственный академический музыкальный театр


 

[Цитировать]

Новогоднее кабаре Театр: Белорусский государственный академический музыкальный театр.
Год выпуска: 2011.
Жанр: гала-концерт.
Продолжительность: 00:55:20.
Режиссер: Сусанна Цирюк.
Роли исполняли:
народная артистка Республики Беларусь Наталия Гайда, Маргарита Александрович, Анна Беляева, Наталья Глух, Екатерина Дегтярева, Наталья Дементьева, Александр Жуков, Лидия Кузьмицкая, Ирина Кучинская, Леся Лют, Светлана Мациевская, Василий Мингалев, Андрей Морозов, Денис Немцов, Олег Прохоров, Сергей Сутько.
О спектакле:
Театрализованный гала-концерт.
Основной закон шоу-бизнеса гласит: "SHOW MUST GO ON!" Зритель не может ждать! Но что же делать, если на носу Новый год, а актеры праздничного представления разбежались? Срочно искать новых "звезд", считает хозяйка некогда популярного кабаре и начинает воплощать свой замысел в жизнь. Однако быстро собрать новую труппу — нелегкая задача, ведь все знаменитые актеры давно уже заняты. Впрочем, как известно, талант живет в каждом человеке, а значит, от желающих оказаться на сцене всегда отбоя нет! И вообще, в актеров можно превратить всех, кто оказался поблизости: случайных посетителей кабаре и даже уборщицу! А если еще объявить кастинг, то новые артисты точно не заставят себя ждать.
Калейдоскоп сменяющих друг друга номеров и фейерверк талантов: восхитительные красавицы, харизматичные мужчины, интригующие заезжие знаменитости, и, конечно же, самые настоящие Дед Мороз и Снегурочка. А еще пикантные амурные истории и прекрасная музыка – в общем, все, что требуется для незабываемой праздничной ночи!

Дополнительная информация:
Страна: Беларусь .
Либретто Сусанны Цирюк.
Дирижер-постановщик: Андрей Галанов.
Дирижер: Марина Третьякова.
Сценография и костюмы: Любовь Сидельникова.
Художник по свету: Станислав Теуважуков.
Репетитор по балету: Владимир Крупский.
Балетмейстер-постановщик: Елена Дмитриева-Лавринович.
Хормейстер-постановщик: Светлана Петрова.
Премьера спектакля состоялась 28 декабря 2011 года.

О спектакле.
Релиз
Рип sharky.
Качество видео:...WEB-DLRip
Формат:.................AVI
Видео:..704x400 (1.76:1), 25 fps, XviD build 50 ~1676 kbps avg, 0.24 bit/pixel
Аудио:..48 kHz, AC3 Dolby Digital, 2/0 (L,R) ch, ~192 kbps

Отчет Media Info

General
Complete name : Novogodnee.kabare.2011.XviD.WEB-DLRip.fenixclub.avi
Формат : AVI
Формат/Информация : Audio Video Interleave
Размер файла : 744 Мбайт
Продолжительность : 55 м.
Общий поток : 1878 Кбит/сек
Программа кодирования : VirtualDubMod 1.5.10.3 | www.virtualdub-fr.org || (build 2550/release)
Библиотека кодирования : VirtualDubMod build 2550/release
Видео
Идентификатор : 0
Формат : MPEG-4 Visual
Профиль формата : Advanced Simple@L5
Параметр BVOP формата : 2
Параметр QPel формата : Нет
Параметр GMC формата : Без точки перехода
Параметр матрицы формата : Default (H.263)
Режим смешивания : Сжатый битовый поток
Идентификатор кодека : XVID
Идентификатор кодека/Подсказка : XviD
Продолжительность : 55 м.
Битрейт : 1677 Кбит/сек
Ширина : 704 пикселя
Высота : 400 пикселей
Соотношение сторон : 16:9
Частота кадров : 25,000 кадров/сек
Цветовое пространство : YUV
Субдискретизация насыщенности : 4:2:0
Битовая глубина : 8 бит
Тип развёртки : Прогрессивная
Метод сжатия : С потерями
Бит/(Пиксели*Кадры) : 0.238
Размер потока : 664 Мбайт (89%)
Библиотека кодирования : XviD 1.2.1 (UTC 2008-12-04)
Аудио
Идентификатор : 1
Формат : AC-3
Формат/Информация : Audio Coding 3
Расширение режима : CM (complete main)
Параметр Endianness формата : Big
Идентификатор кодека : 2000
Продолжительность : 55 м.
Вид битрейта : Постоянный
Битрейт : 192 Кбит/сек
Каналы : 2 канала
Расположение каналов : Front: L R
Частота : 48,0 КГц
Битовая глубина : 16 бит
Метод сжатия : С потерями
Размер потока : 76,0 Мбайт (10%)
Выравнивание : Разделение по промежуткам
Продолжительность промежутка : 40 мс. (1,00 видеокадр)
Время предзагрузки промежутка : 500 мс.

Скриншоты


Альтернативный хост





Показать сообщения:    

Текущее время: 20-Янв 14:51

Часовой пояс: UTC + 3


Вы не можете начинать темы
Вы не можете отвечать на сообщения
Вы не можете редактировать свои сообщения
Вы не можете удалять свои сообщения
Вы не можете голосовать в опросах
Вы не можете прикреплять файлы к сообщениям
Вы не можете скачивать файлы