Римский-Корсаков - Царская невеста (Кузнецов, Шишкова, Мончак, Ахмедов, Татарников, Могучий) [2015, opera, DVB-AVC]


 

[Цитировать]

Римский-Корсаков - Царская невеста
Год выпуска: 2015
Страна-производитель: Россия
Жанр: opera
Продолжительность: 2:57:13
Язык: русский
Режиссер: Андрей Могучий
Дирижёр: Михаил Татарников
Исполнители:
Грязной - Александр Кузнецов
Любаша - Ирина Шишкова
Марфа - Светлана Мончак
Лыков - Евгений Ахмедов
Собакин - Карен Акопов
Малюта Скуратов - Андрей Гонюков
Бомелий - Олег Балашов
Домна Сабурова - Марина Трегубович
Дуняша - Ирина Михайлова
Петровна - Анастасия Виноградова-Заболотская
Сенная девушка - Виктория Войтенкова
Царский истопник - Владимир Чижонков
Парни - Михаил Иванов, Иван Спичко
Марфа в детстве - Тоня Алексеева
Иван Лыков в детстве - Коля Кабин
Царь Иоанн Васильевич - Матвей Шилкин
Улыбающийся парень - Дмитрий Бурдин
Знатный вершник, опричники, бояре, песенники, плясуньи, сенные девушки,
слуги, народ - артисты хора и миманса Михайловского театра
Художник-постановщик, художник по костюмам: Максим Исаев
Главный хормейстер : Владимир Столповских
Хормейстеры: Сергей Цыпленков, Алексей Дмитриев
Хореограф: Мария Большакова
Детский хор телевидения и радио Санкт-Петербурга
Художественный руководитель: Станислав Грибков
Режиссёр тв-трансляции: Константин Куц
Оператор-постановщик: Владимир Иванов
Вступление перед показом и действиями, интервью с создателями спектакля и исполнителями главных ролей - Андрейс Жагарс
Описание: Фестиваль "Золотая маска". Михайловский театр, Санкт-Петербург. Трансляция спектакля-номинанта осуществлена ГТРК "Культура" 17.03.2015
Доп. информация:
Данное видео представляет собой прямую запись вещания канала "Культура" мультиплекса РТРС-1 в стандарте DVB-T2. Монтаж программой VideoReDo TVSuite H.264 v4.21.6.674, ремукс MKVMerge
Если вы испытываете какие-либо проблемы с его просмотром на компьютере (включая "эффект расчески" или низкое качество видео в сравнении со скриншотами), то можете использовать портативную версию VLC плеера как наиболее универсальное средство их решения. Бытовые плееры, поддерживающие mkv-формат, не должны иметь каких-либо сложностей.
Качество видео: DVB-AVC
Формат/Контейнер: MKV
Видео кодек: H.264
Аудио кодек: MP2
Видео поток: 720x576 (4:3) 50fps ~2500kbps
Аудио поток: 48000Hz 2ch mono 192kbps

MediaInfo

Format : MatroskaFormat version : Version 4 / Version 2File size : 1.13 GiBDuration : 57mn 57sOverall bit rate : 2 783 KbpsEncoded date : UTC 2015-03-19 19:00:25Writing application : mkvmerge v6.1.0 ('Old Devil') built on Mar 4 2013 09:10:42Writing library : libebml v1.3.0 + libmatroska v1.4.0
VideoID : 1Format : AVCFormat/Info : Advanced Video CodecFormat profile : Main@L3.0Format settings, CABAC : YesFormat settings, ReFrames : 3 framesFormat settings, GOP : M=4, N=28Codec ID : V_MPEG4/ISO/AVCDuration : 57mn 57sBit rate : 2 536 KbpsWidth : 720 pixelsHeight : 576 pixelsDisplay aspect ratio : 4:3Original display aspect ratio : 4:3Frame rate mode : ConstantFrame rate : 25.000 fpsStandard : ComponentColor space : YUVChroma subsampling : 4:2:0Bit depth : 8 bitsScan type : InterlacedScan order : Top Field FirstBits/(Pixel*Frame) : 0.245Stream size : 1.03 GiB (91%)Default : YesForced : NoColor primaries : BT.601 PALTransfer characteristics : BT.470 System B, BT.470 System GMatrix coefficients : BT.601
AudioID : 2Format : MPEG AudioFormat version : Version 1Format profile : Layer 2Codec ID : A_MPEG/L2Codec ID/Hint : MP2Duration : 57mn 57sBit rate mode : ConstantBit rate : 192 KbpsChannel(s) : 2 channelsSampling rate : 48.0 KHzCompression mode : LossyStream size : 79.6 MiB (7%)Language : EnglishDefault : YesForced : No

Скриншоты




Показать сообщения:    

Текущее время: 11-Дек 14:59

Часовой пояс: UTC + 3


Вы не можете начинать темы
Вы не можете отвечать на сообщения
Вы не можете редактировать свои сообщения
Вы не можете удалять свои сообщения
Вы не можете голосовать в опросах
Вы не можете прикреплять файлы к сообщениям
Вы не можете скачивать файлы