По страницам любимых оперетт (Ольга Горобинская) [2012 г., Украина, Оперетта, концерт, CAMRip] Северодонецкое областное музыкальное училище имени Сергея Сергеевича Прокофьева


 

[Цитировать]

По страницам любимых оперетт Северодонецкое областное музыкальное училище имени С. С. Прокофьева.
Год выпуска: 2012.
Страна: Украина .
Жанр: Оперетта, концерт.
Продолжительность: 01:13:19.
Режиссер: Ольга Горобинская.
Исполнители:
Георгий Синаревский, Полина Товмач, Дарья Штомпель, Олег Борщов, Екатерина Пустоварова, Юлия Сидорченко, Елизавета Погорелова, Кристина Игнат, Юлия Бражникова, Ольга Михалева, Лолита Семерня и др.
Описание:
Незабываемым новогодним подарком для жителей города, почитателей музыки, любителей академического пения стал концерт «По страницам любимых оперетт», прошедший 20 декабря 2012 года в Большом концертном зале Северодонецкого областного музыкального училища им. С. С. Прокофьева.
В программе вечера прозвучали популярнейшие произведения классиков жанров оперетты и мюзикла, среди которых Жак Оффенбах, Иоганн Штраус, Имре Кальман, Ференц Легар, Евгений Птичкин, Исаак Дунаевский, Борис Александров, Фредерик Лоу, Эндрю Уэббер и другие.

Дополнительная информация:
Релиз
Рип sharky.
Качество видео:...CAMRip
Формат:.................AVI
Видео:..704x528 (1.33:1), 25 fps, XviD build 47 ~1924 kbps avg, 0.21 bit/pixel
Аудио:..48 kHz, AC3 Dolby Digital, 2/0 (L,R) ch, ~192 kbps

Отчет MI

Общее
Полное имя : Po.stranicam.lyubimyh.operett_SOMU.im.Prokof'eva.2012.XviD.CAMRip.fenixclub.avi
Формат : AVI
Формат/Информация : Audio Video Interleave
Размер файла : 1,09 Гбайт
Продолжительность : 1 ч. 13 м.
Общий поток : 2127 Кбит/сек
Программа кодирования : VirtualDubMod 1.5.10.2 (build 2540/release)
Библиотека кодирования : VirtualDubMod build 2540/release
Видео
Идентификатор : 0
Формат : MPEG-4 Visual
Профиль формата : Advanced Simple@L5
Параметр BVOP формата : 1
Параметр QPel формата : Нет
Параметр GMC формата : Без точки перехода
Параметр матрицы формата : Default (H.263)
Идентификатор кодека : XVID
Идентификатор кодека/Подсказка : XviD
Продолжительность : 1 ч. 13 м.
Битрейт : 1925 Кбит/сек
Ширина : 704 пикселя
Высота : 528 пикселей
Соотношение сторон : 4:3
Частота кадров : 25,000 кадров/сек
Цветовое пространство : YUV
Субдискретизация насыщенности : 4:2:0
Битовая глубина : 8 бит
Тип развёртки : Прогрессивная
Метод сжатия : С потерями
Бит/(Пиксели*Кадры) : 0.207
Размер потока : 1009 Мбайт (91%)
Библиотека кодирования : XviD 1.2.0.dev47 (UTC 2006-11-01)
Аудио
Идентификатор : 1
Формат : AC-3
Формат/Информация : Audio Coding 3
Расширение режима : CM (complete main)
Параметр Endianness формата : Big
Идентификатор кодека : 2000
Продолжительность : 1 ч. 13 м.
Вид битрейта : Постоянный
Битрейт : 192 Кбит/сек
Каналы : 2 канала
Расположение каналов : Front: L R
Частота : 48,0 КГц
Битовая глубина : 16 бит
Метод сжатия : С потерями
Размер потока : 101 Мбайт (9%)
Выравнивание : Разделение по промежуткам
Продолжительность промежутка : 40 мс. (1,00 видеокадр)
Время предзагрузки промежутка : 500 мс.

Скриншоты


Альтернативный хост





Показать сообщения:    

Текущее время: 03-Дек 03:23

Часовой пояс: UTC + 3


Вы не можете начинать темы
Вы не можете отвечать на сообщения
Вы не можете редактировать свои сообщения
Вы не можете удалять свои сообщения
Вы не можете голосовать в опросах
Вы не можете прикреплять файлы к сообщениям
Вы не можете скачивать файлы