Rossini - Il Barbiere di Siviglia (Isabel Leonard, Lawrence Brownlee, Christopher Maltman / Michele Mariotti) / Россини - Севильский цирюльник (Изабель Леонард, Лоуренс Браунли, Кристофер Молтман / Микеле Мариотти) [22.11.2014, Opera, HDTVRip]


 

[Цитировать]

Rossini - Il Barbiere di Siviglia / Россини - Севильский цирюльник
Год выпуска: 22.11.2014
Жанр: Opera
Продолжительность: 03:02:56
Язык: итальянский
Субтитры: русские, английские
Режиссер: Бартлетт Шер
Дирижер: Микеле Мариотти
Исполнители:
Розина - Изабель Леонард
Граф Альмавива - Лоуренс Браунли
Фигаро - Кристофер Молтман
Доктор Бартоло - Маурицио Мураро
Дон Базилио - Паата Бурчуладзе
Описание:
Блистательная постановка классической комедии Россини, наполненной самыми известными мелодиями в мире, уже была показана в серии Live in HD, но в сезоне 2014-15 в спектакле появятся новые лица. Изабель Леонард сыграет обаятельную Розину, Лоуренс Браунли - ее скрывающего свое происхождение возлюбленного, а Кристофер Молтман - пройдоху-цирюльника, способного обстряпать любое дельце. Искрометной партитурой продирижирует Микеле Мариотти.
Доп. информация:
Видеозапись с технического канала (спутник 1W), исходное видео сжато (1920х1080i -> 960х540p), аудио без изменений. Спасибо за консультации и советы Ya-san, без участия которого этот релиз вряд ли бы тут появился.
Качество: HDTVRip
Формат: MKV
Видео кодек: H.264
Аудио кодек: AC3
Видео: 960x540p (16х9), 25 fps, 1462Kbps
Аудио: 48000Hz, 6ch, 448Kbps

MediaInfo

General
Unique ID : 212279866900760215192231519244752718596 (0x9FB39D7F6A9E04EFABFA789A61870B04)
Complete name : H:\Rossini_Il_Barbiere_di_Siviglia_Met_2014_rus_eng.mkv
Format : Matroska
Format version : Version 2
File size : 2.49 GiB
Duration : 3h 2mn
Overall bit rate : 1 948 Kbps
Encoded date : UTC 2015-02-25 08:58:06
Writing application : mkvmerge v5.7.0 ('The Whirlwind') built on Jul 8 2012 20:08:51
Writing library : libebml v1.2.3 + libmatroska v1.3.0
Video
ID : 1
Format : AVC
Format/Info : Advanced Video Codec
Format profile : High@L4.1
Format settings, CABAC : Yes
Format settings, ReFrames : 8 frames
Codec ID : V_MPEG4/ISO/AVC
Duration : 3h 2mn
Bit rate : 1 462 Kbps
Width : 960 pixels
Height : 540 pixels
Display aspect ratio : 16:9
Frame rate mode : Constant
Frame rate : 25.000 fps
Color space : YUV
Chroma subsampling : 4:2:0
Bit depth : 8 bits
Scan type : Progressive
Bits/(Pixel*Frame) : 0.113
Stream size : 1.87 GiB (75%)
Writing library : x264 core 144 r2525 40bb568
Encoding settings : cabac=1 / ref=8 / deblock=1:0:0 / analyse=0x3:0x113 / me=umh / subme=9 / psy=1 / psy_rd=1.00:0.00 / mixed_ref=1 / me_range=16 / chroma_me=1 / trellis=2 / 8x8dct=1 / cqm=0 / deadzone=21,11 / fast_pskip=1 / chroma_qp_offset=-2 / threads=3 / lookahead_threads=1 / sliced_threads=0 / nr=0 / decimate=1 / interlaced=0 / bluray_compat=0 / constrained_intra=0 / bframes=3 / b_pyramid=2 / b_adapt=2 / b_bias=0 / direct=3 / weightb=1 / open_gop=0 / weightp=2 / keyint=250 / keyint_min=25 / scenecut=40 / intra_refresh=0 / rc_lookahead=60 / rc=crf / mbtree=1 / crf=19.5 / qcomp=0.60 / qpmin=0 / qpmax=69 / qpstep=4 / vbv_maxrate=14000 / vbv_bufsize=14000 / crf_max=0.0 / nal_hrd=none / filler=0 / ip_ratio=1.40 / aq=1:1.00
Language : English
Default : Yes
Forced : No
Audio
ID : 2
Format : AC-3
Format/Info : Audio Coding 3
Mode extension : CM (complete main)
Format settings, Endianness : Big
Codec ID : A_AC3
Duration : 3h 2mn
Bit rate mode : Constant
Bit rate : 448 Kbps
Channel(s) : 6 channels
Channel positions : Front: L C R, Side: L R, LFE
Sampling rate : 48.0 KHz
Bit depth : 16 bits
Compression mode : Lossy
Stream size : 586 MiB (23%)
Language : Italian
Default : Yes
Forced : No
Text #1
ID : 3
Format : UTF-8
Codec ID : S_TEXT/UTF8
Codec ID/Info : UTF-8 Plain Text
Language : Russian
Default : No
Forced : No
Text #2
ID : 4
Format : UTF-8
Codec ID : S_TEXT/UTF8
Codec ID/Info : UTF-8 Plain Text
Language : English
Default : No
Forced : No
Menu
00:00:00.000 : :Title
00:02:13.000 : :Sinfonia
00:09:20.000 : :Act I
01:36:44.000 : :Interviews
01:58:58.000 : :Act II
02:57:48.000 : :End

Скриншоты




Показать сообщения:    

Текущее время: 03-Дек 03:20

Часовой пояс: UTC + 3


Вы не можете начинать темы
Вы не можете отвечать на сообщения
Вы не можете редактировать свои сообщения
Вы не можете удалять свои сообщения
Вы не можете голосовать в опросах
Вы не можете прикреплять файлы к сообщениям
Вы не можете скачивать файлы