Offenbach - Les Contes d\'Hoffmann / Оффенбах - Сказки Гофмана (Abel, Sher, Grigolo, Lindsey, Hampson, Morley, Gerzmava / Герзмава, Rice)[2015, opera, HDTVRip] sub: Eng, Ger, Ita, Spa, Fre, Por, Rus & Swe


 

[Цитировать]

Offenbach - Les Contes d'Hoffmann / Оффенбах - Сказки Гофмана
Год выпуска: 2015
Жанр: opera
Продолжительность: 3:14:29
Язык: French (English Interviews)
Перевод: субитиры (без интервью)
Субтитры: Eng, Ger, Ita, Spa, Fre, Por, Rus & Swe
Режиссер: Bartlett Sher
Дирижер: Yves Abel
Исполнители:
HOFFMANN Vittorio Grigolo
THE MUSE / NICKLAUSSE Kate Lindsey
FOUR VILLAINS Thomas Hampson
OLYMPIA Erin Morley
ANTONIA / STELLA Hibla Gerzmava
GIULIETTA Christine Rice
FOUR SERVANTS Tony Stevenson
LUTHER / CRESPEL David Pittsinger
HERMANN / SCHLEMIL David Crawford
NATHANAEL / SPALANZANI Dennis Petersen
ANTONIA’S MOTHER Olesya Petrova
Спасибо Mauricelugher и akacha
Качество видео: HDTVRip
Формат/Контейнер: MKV
Видео кодек: H.264
Аудио кодек: AC3
Видео поток: 960x540 25fps 1259 Kbps crf=20.1
Аудио поток: 48000Hz 6ch 448 Kbps

MI

Format : Matroska
Format version : Version 2
File size : 1 020 MiB
Duration : 1h 21mn
Overall bit rate : 1 742 Kbps
Encoded date : UTC 2015-02-04 16:11:11
Writing application : mkvmerge v6.1.0 ('Old Devil') built on Mar 4 2013 09:10:42
Writing library : libebml v1.3.0 + libmatroska v1.4.0
Video
ID : 1
Format : AVC
Format/Info : Advanced Video Codec
Format profile : High@L4.1
Format settings, CABAC : Yes
Format settings, ReFrames : 8 frames
Codec ID : V_MPEG4/ISO/AVC
Duration : 1h 21mn
Bit rate : 1 259 Kbps
Width : 960 pixels
Height : 540 pixels
Display aspect ratio : 16:9
Frame rate mode : Constant
Frame rate : 25.000 fps
Color space : YUV
Chroma subsampling : 4:2:0
Bit depth : 8 bits
Scan type : Progressive
Bits/(Pixel*Frame) : 0.097
Stream size : 737 MiB (72%)
Writing library : x264 core 130 r2273 b3065e6
Encoding settings : cabac=1 / ref=8 / deblock=1:-1:-1 / analyse=0x3:0x133 / me=umh / subme=9 / psy=1 / psy_rd=1.00:0.10 / mixed_ref=1 / me_range=24 / chroma_me=1 / trellis=2 / 8x8dct=1 / cqm=0 / deadzone=21,11 / fast_pskip=1 / chroma_qp_offset=-3 / threads=6 / lookahead_threads=1 / sliced_threads=0 / nr=0 / decimate=1 / interlaced=0 / bluray_compat=0 / constrained_intra=0 / bframes=3 / b_pyramid=2 / b_adapt=2 / b_bias=0 / direct=3 / weightb=1 / open_gop=0 / weightp=2 / keyint=250 / keyint_min=25 / scenecut=40 / intra_refresh=0 / rc_lookahead=60 / rc=crf / mbtree=1 / crf=20.1 / qcomp=0.60 / qpmin=0 / qpmax=69 / qpstep=4 / ip_ratio=1.40 / aq=1:1.00
Default : Yes
Forced : No
Audio
ID : 2
Format : AC-3
Format/Info : Audio Coding 3
Mode extension : CM (complete main)
Format settings, Endianness : Big
Codec ID : A_AC3
Duration : 1h 21mn
Bit rate mode : Constant
Bit rate : 448 Kbps
Channel(s) : 6 channels
Channel positions : Front: L C R, Side: L R, LFE
Sampling rate : 48.0 KHz
Bit depth : 16 bits
Compression mode : Lossy
Stream size : 262 MiB (26%)
Default : Yes
Forced : No



Показать сообщения:    

Текущее время: 04-Дек 00:52

Часовой пояс: UTC + 3


Вы не можете начинать темы
Вы не можете отвечать на сообщения
Вы не можете редактировать свои сообщения
Вы не можете удалять свои сообщения
Вы не можете голосовать в опросах
Вы не можете прикреплять файлы к сообщениям
Вы не можете скачивать файлы